<?xml version="1.0" standalone="no"?>
<!DOCTYPE svg PUBLIC "-//W3C//DTD SVG 1.1//EN" "http://www.w3.org/Graphics/SVG/1.1/DTD/svg11.dtd" >
<svg>
<metadata>
Created by FontForge 20090622 at Thu Jan 21 03:32:26 2016
 By deploy user
&#194;&#169; 2000, 2004 Adobe Systems Incorporated. All Rights Reserved. U.S. Patent D454,582.
</metadata>
<defs>
<font id="MyriadPro-LightSemiCn" horiz-adv-x="300" >
  <font-face 
    font-family="Myriad Pro Light SemiCond"
    font-weight="300"
    font-stretch="semi-condensed"
    units-per-em="1000"
    panose-1="2 11 4 3 3 4 3 2 2 4"
    ascent="750"
    descent="-250"
    x-height="480"
    cap-height="674"
    bbox="-148 -250 996 930"
    underline-thickness="50"
    underline-position="-50"
    unicode-range="U+0020-U+FB04"
  />
<missing-glyph horiz-adv-x="500" 
d="M0 0v700h500v-700h-500zM250 395l170 255h-340zM280 350l170 -255v510zM80 50h340l-170 255zM50 605v-510l170 255z" />
    <glyph glyph-name="f_f_j" unicode="ffj" horiz-adv-x="707" 
d="M614 684l-20 -36q-39 27 -90 27q-120 0 -120 -167v-28h251v-448q0 -71 -10.5 -113.5t-37.5 -74.5q-21 -24 -54 -36.5t-59 -13.5l-7 37q62 7 89 42q18 24 25.5 62.5t7.5 124.5v382h-205v-442h-46v442h-212v-442h-46v442h-66v38h66v23q0 103 50 157q41 43 107 43
q43 0 78 -22l-17 -37q-34 20 -66 20q-45 0 -71 -32q-35 -40 -35 -131v-21h212v32q0 92 43.5 147.5t130.5 55.5q65 0 102 -31z" />
    <glyph glyph-name="f_j" unicode="fj" horiz-adv-x="449" 
d="M126 0h-46v442h-66v38h66v32q0 92 43.5 147.5t130.5 55.5q65 0 102 -31l-21 -36q-37 27 -89 27q-120 0 -120 -167v-28h250v-448q0 -71 -10 -113.5t-37 -74.5q-22 -24 -54.5 -36.5t-58.5 -13.5l-8 37q63 7 90 42q18 23 25 61.5t7 125.5v382h-204v-442z" />
    <glyph glyph-name="f_f" unicode="ff" horiz-adv-x="500" 
d="M384 0h-46v442h-212v-442h-46v442h-66v38h66v23q0 112 50 162q35 38 98 38q40 0 64 -16l-15 -37q-24 14 -53 14q-54 0 -76 -41t-22 -117v-26h212v29q0 113 49 165q40 41 100 41q39 0 65 -15l-14 -37q-24 12 -56 12q-98 0 -98 -165v-30h118v-38h-118v-442z" />
    <glyph glyph-name="f_i" unicode="fi" horiz-adv-x="451" 
d="M126 0h-46v442h-66v38h66v32q0 92 43.5 147.5t130.5 55.5q65 0 102 -31l-21 -36q-37 27 -89 27q-120 0 -120 -167v-28h250v-480h-46v442h-204v-442z" />
    <glyph glyph-name="f_l" unicode="fl" horiz-adv-x="451" 
d="M126 0h-46v442h-66v38h66v24q0 111 60 168q48 43 127 43q63 0 110 -26v-689h-46v661q-30 14 -75 14q-130 0 -130 -165v-30h117v-38h-117v-442z" />
    <glyph glyph-name="f_f_i" unicode="ffi" horiz-adv-x="709" 
d="M614 684l-20 -36q-39 27 -90 27q-120 0 -120 -167v-28h251v-480h-46v442h-205v-442h-46v442h-212v-442h-46v442h-66v38h66v23q0 103 50 157q41 43 107 43q43 0 78 -22l-17 -37q-34 20 -66 20q-45 0 -71 -32q-35 -40 -35 -131v-21h212v32q0 92 43.5 147.5t130.5 55.5
q65 0 102 -31z" />
    <glyph glyph-name="f_f_l" unicode="ffl" horiz-adv-x="709" 
d="M315 683l-18 -37q-29 18 -64 18q-45 0 -72 -32q-35 -39 -35 -130v-22h212v24q0 111 61 168q46 43 126 43q63 0 110 -26v-689h-46v661q-30 14 -75 14q-69 0 -99.5 -46t-30.5 -119v-30h118v-38h-118v-442h-46v442h-212v-442h-46v442h-66v38h66v17q0 109 49 163
q40 43 108 43q43 0 78 -20z" />
    <glyph glyph-name=".notdef" horiz-adv-x="500" 
d="M0 0v700h500v-700h-500zM250 395l170 255h-340zM280 350l170 -255v510zM80 50h340l-170 255zM50 605v-510l170 255z" />
    <glyph glyph-name=".null" horiz-adv-x="0" 
 />
    <glyph glyph-name="nonmarkingreturn" horiz-adv-x="333" 
 />
    <glyph glyph-name="space" unicode=" " horiz-adv-x="200" 
 />
    <glyph glyph-name="exclam" unicode="!" horiz-adv-x="200" 
d="M119 174h-38l-9 500h56zM100 -10h-1q-16 0 -26.5 12t-10.5 30q0 19 10.5 31t27.5 12q18 0 28 -12t10 -31q0 -18 -10.5 -30t-27.5 -12z" />
    <glyph glyph-name="quotedbl" unicode="&#x22;" horiz-adv-x="299" 
d="M60 689h55l-11 -219h-32zM184 689h55l-11 -219h-32z" />
    <glyph glyph-name="numbersign" unicode="#" horiz-adv-x="434" 
d="M155 244h103l21 168h-103zM124 0h-40l26 205h-76v39h81l22 168h-82v37h87l26 201h39l-26 -201h103l26 201h39l-25 -201h76v-37h-81l-21 -168h82v-38h-87l-26 -206h-41l26 206h-102z" />
    <glyph glyph-name="dollar" unicode="$" horiz-adv-x="449" 
d="M238 -84h-40v102q-77 0 -133 43l19 36q53 -41 121 -41q56 0 90 34.5t34 86.5q0 48 -27 81t-82 60q-72 33 -109.5 70.5t-37.5 95.5q0 59 37 100t93 50v100h40v-98q69 -3 112 -34l-20 -36q-51 31 -107 31q-53 0 -81.5 -31.5t-28.5 -72.5q0 -47 26.5 -74t92.5 -59
q69 -33 103 -75t34 -103q0 -62 -36.5 -107t-99.5 -55v-104z" />
    <glyph glyph-name="percent" unicode="%" horiz-adv-x="707" 
d="M168 660h1q57 0 93 -49.5t36 -144.5q0 -99 -38 -150.5t-96 -51.5q-54 0 -91.5 50t-38.5 145q0 98 39.5 149.5t94.5 51.5zM166 626h-1q-42 0 -65.5 -49t-23.5 -115q-2 -66 22 -115t68 -49q46 0 68 48t22 118q0 67 -21.5 114.5t-68.5 47.5zM185 -14h-39l374 677h39z
M543 389h1q57 0 93.5 -49.5t36.5 -144.5q0 -98 -38 -149.5t-96 -51.5q-55 0 -92.5 49.5t-38.5 145.5q0 97 39.5 148.5t94.5 51.5zM541 355h-1q-42 0 -65.5 -49t-23.5 -115q-1 -65 23 -114t67 -49q46 0 68 47.5t22 117.5q0 43 -7.5 77.5t-28.5 59.5t-54 25z" />
    <glyph glyph-name="ampersand" unicode="&#x26;" horiz-adv-x="532" 
d="M524 0h-57l-68 76q-82 -86 -187 -86q-80 0 -130 54.5t-50 132.5q0 118 124 199v3q-55 78 -55 149q0 63 38.5 109.5t103.5 46.5q51 0 85.5 -35.5t34.5 -97.5q0 -54 -34 -97.5t-111 -85.5v-3l181 -224q44 74 63 217h45q-26 -169 -82 -246zM221 29h1q90 0 152 76l-197 241
q-98 -67 -98 -164q0 -65 39.5 -109t102.5 -44zM235 646h-1q-42 0 -65.5 -33t-23.5 -81q0 -63 51 -136q61 36 92 71t31 80q0 40 -21 69.5t-63 29.5z" />
    <glyph glyph-name="quotesingle" unicode="'" horiz-adv-x="175" 
d="M60 689h55l-11 -219h-32z" />
    <glyph glyph-name="parenleft" unicode="(" horiz-adv-x="261" 
d="M200 695h44q-130 -170 -130 -411q0 -230 130 -406h-44q-130 171 -130 407q0 237 130 410z" />
    <glyph glyph-name="parenright" unicode=")" horiz-adv-x="261" 
d="M60 -122h-43q129 173 129 409q0 235 -129 408h43q131 -168 131 -408q0 -237 -131 -409z" />
    <glyph glyph-name="asterisk" unicode="*" horiz-adv-x="383" 
d="M255 684l41 -23l-85 -123v-2l142 13v-46l-141 12v-3l86 -117l-44 -25l-63 129h-2l-67 -131l-38 25l84 120v3l-138 -13v46l137 -11v2l-82 119l40 23l65 -127h2z" />
    <glyph glyph-name="plus" unicode="+" horiz-adv-x="596" 
d="M277 532h42v-245h237v-40h-237v-247h-42v247h-237v40h237v245z" />
    <glyph glyph-name="comma" unicode="," horiz-adv-x="173" 
d="M61 -121l-36 -5q12 32 28.5 99t23.5 113l61 10q-13 -53 -38.5 -123.5t-38.5 -93.5z" />
    <glyph glyph-name="hyphen" unicode="-" horiz-adv-x="296" 
d="M30 288h236v-40h-236v40z" />
    <glyph glyph-name="period" unicode="." horiz-adv-x="173" 
d="M91 -10h-1q-16 0 -27 12.5t-10 30.5q0 19 11 31.5t28 12.5q18 0 28.5 -12t10.5 -32q0 -19 -11 -31t-29 -12z" />
    <glyph glyph-name="slash" unicode="/" horiz-adv-x="330" 
d="M44 -40h-44l284 724h46z" />
    <glyph glyph-name="zero" unicode="0" horiz-adv-x="449" 
d="M232 660q81 0 131.5 -82.5t50.5 -246.5q0 -170 -52.5 -255.5t-143.5 -85.5q-77 0 -129.5 83.5t-53.5 249.5q0 168 56 252.5t141 84.5zM225 621q-64 0 -103 -81.5t-39 -217.5q0 -133 38 -213t103 -80q71 0 106.5 81.5t35.5 217.5q0 133 -35 213t-106 80z" />
    <glyph glyph-name="one" unicode="1" horiz-adv-x="449" 
d="M223 0v601h-2l-106 -63l-12 36l126 76h40v-650h-46z" />
    <glyph glyph-name="two" unicode="2" horiz-adv-x="449" 
d="M400 0h-357v29l57 64q125 131 180 215t55 168q0 64 -30.5 103.5t-97.5 39.5q-65 0 -124 -51l-18 32q64 60 151 60q84 0 125.5 -52.5t41.5 -124.5q0 -87 -54.5 -172.5t-174.5 -214.5l-46 -54v-2h292v-40z" />
    <glyph glyph-name="three" unicode="3" horiz-adv-x="449" 
d="M41 30l18 37q52 -37 125 -37q78 0 115 45t37 105q-1 74 -51 113.5t-124 39.5h-34v39h34q56 0 103.5 34.5t47.5 97.5q0 52 -29 84t-86 32q-58 0 -113 -42l-18 35q57 47 138 47q77 0 116.5 -43t39.5 -106q0 -51 -29.5 -92t-84.5 -63v-2q59 -12 98 -57t39 -115
q0 -81 -53 -136.5t-150 -55.5q-85 0 -139 40z" />
    <glyph glyph-name="four" unicode="4" horiz-adv-x="449" 
d="M339 0h-45v192h-280v31l285 427h40v-419h92v-39h-92v-192zM68 231h226v249q0 58 4 105h-4q-14 -28 -53 -98l-173 -254v-2z" />
    <glyph glyph-name="five" unicode="5" horiz-adv-x="449" 
d="M378 650v-41h-224l-33 -209q19 4 50 4q69 0 122 -34q87 -53 87 -163q0 -96 -60 -156.5t-147 -60.5q-85 0 -136 38l18 37q51 -35 121 -35q67 0 112.5 46.5t44.5 123.5q0 76 -45 120t-132 44q-41 0 -81 -6l43 292h260z" />
    <glyph glyph-name="six" unicode="6" horiz-adv-x="449" 
d="M362 660l1 -43q-33 0 -62 -6q-95 -21 -151 -99t-67 -177h2q53 84 153 84q80 0 128.5 -57t48.5 -149q0 -93 -49.5 -158t-135.5 -65q-87 0 -141 73t-54 196q0 180 96 293q67 80 174 101q31 7 57 7zM232 29h1q58 0 96 46.5t38 131.5t-38.5 128.5t-102.5 43.5
q-41 0 -78 -24.5t-57 -66.5q-10 -20 -10 -36q1 -105 41 -164t110 -59z" />
    <glyph glyph-name="seven" unicode="7" horiz-adv-x="449" 
d="M54 650h352v-31l-269 -619h-45l266 608v2h-304v40z" />
    <glyph glyph-name="eight" unicode="8" horiz-adv-x="449" 
d="M167 344v3q-51 25 -77.5 65t-26.5 84q0 72 48.5 118t120.5 46q74 0 116 -45.5t42 -107.5q0 -104 -107 -158v-4q128 -59 128 -174q0 -77 -54 -129t-133 -52q-83 0 -134.5 50t-51.5 119q0 121 129 185zM224 29q63 0 101.5 36t38.5 99t-37 100t-112 65q-61 -22 -95 -65
t-34 -95q-2 -61 35.5 -100.5t102.5 -39.5zM227 622q-54 0 -86 -33.5t-32 -85.5q-1 -55 32.5 -87.5t94.5 -52.5q107 47 107 139q0 51 -29.5 85.5t-86.5 34.5z" />
    <glyph glyph-name="nine" unicode="9" horiz-adv-x="449" 
d="M89 -10v43q25 -3 64 5q76 14 128 71q70 78 86 209h-2q-60 -78 -152 -78q-78 0 -124 56.5t-46 139.5q0 93 53.5 158.5t136.5 65.5q82 0 132 -72.5t50 -194.5q0 -189 -100 -303q-63 -74 -150 -92q-47 -9 -76 -8zM226 621h-1q-58 0 -96.5 -49.5t-38.5 -132.5
q0 -75 36.5 -117t96.5 -42q44 0 80.5 22t57.5 59q7 14 7 27q0 111 -36.5 172t-105.5 61z" />
    <glyph glyph-name="colon" unicode=":" horiz-adv-x="173" 
d="M91 367h-1q-16 0 -27 12.5t-10 30.5q0 20 11 32.5t28 12.5q18 0 28.5 -12.5t10.5 -32.5q0 -19 -11 -31t-29 -12zM91 -10h-1q-16 0 -27 12.5t-10 30.5q0 19 11 31.5t28 12.5q18 0 28.5 -12t10.5 -32q0 -19 -11 -31t-29 -12z" />
    <glyph glyph-name="semicolon" unicode=";" horiz-adv-x="173" 
d="M61 -121l-36 -5q12 32 28.5 99t23.5 113l61 10q-13 -53 -38.5 -123.5t-38.5 -93.5zM102 367h-1q-16 0 -27 12.5t-11 30.5q0 19 11.5 32t28.5 13q18 0 28 -12.5t10 -32.5q0 -19 -10.5 -31t-28.5 -12z" />
    <glyph glyph-name="less" unicode="&#x3c;" horiz-adv-x="596" 
d="M71 248v36l454 248v-46l-408 -219v-2l408 -219v-46z" />
    <glyph glyph-name="equal" unicode="=" horiz-adv-x="596" 
d="M556 345h-516v40h516v-40zM556 155h-516v40h516v-40z" />
    <glyph glyph-name="greater" unicode="&#x3e;" horiz-adv-x="596" 
d="M525 284v-36l-454 -248v46l408 219v2l-408 219v46z" />
    <glyph glyph-name="question" unicode="?" horiz-adv-x="355" 
d="M179 173h-44l-3 22q-15 94 55 189q40 53 57.5 87.5t17.5 73.5q0 48 -27 73.5t-75 25.5q-57 0 -91 -28l-17 35q45 35 117 35q69 0 105.5 -39.5t36.5 -98.5q0 -45 -20 -83.5t-63 -96.5q-61 -84 -51 -170zM154 -10h-1q-17 0 -28 12.5t-10 30.5q0 19 11 31.5t28 12.5
q18 0 28.5 -12t10.5 -32q0 -18 -10.5 -30.5t-28.5 -12.5z" />
    <glyph glyph-name="at" unicode="@" horiz-adv-x="673" 
d="M420 251l28 133q-22 9 -52 9q-73 0 -125 -65t-52 -147q0 -37 17.5 -58t48.5 -21q45 0 85 48.5t50 100.5zM466 -31l14 -33q-70 -40 -165 -40q-120 0 -198.5 81t-78.5 221q0 166 97 281t248 115q116 0 186 -75.5t70 -195.5q0 -119 -48.5 -188t-115.5 -69q-29 0 -48 22.5
t-15 66.5h-3q-51 -89 -137 -89q-40 0 -68.5 31t-28.5 85q0 94 66 170.5t166 76.5q49 0 88 -17l-39 -189q-25 -119 28 -121q43 -1 77.5 59t34.5 148q0 115 -57 181.5t-162 66.5q-124 0 -210 -99.5t-86 -257.5q0 -122 66.5 -194t174.5 -72q82 0 144 35z" />
    <glyph glyph-name="A" unicode="A" horiz-adv-x="536" 
d="M388 235h-237l-74 -235h-47l218 674h45l218 -674h-47zM164 274h211l-70 214q-19 58 -34 130h-3q-11 -53 -33 -128z" />
    <glyph glyph-name="B" unicode="B" horiz-adv-x="465" 
d="M76 1v664q59 14 122 14q111 0 164 -53q41 -43 41 -111q0 -52 -31.5 -92.5t-82.5 -58.5v-2q55 -13 96.5 -57t41.5 -117q0 -78 -49 -130q-59 -63 -194 -63q-39 0 -108 6zM122 633v-254h81q67 0 109.5 37.5t42.5 95.5q0 127 -160 127q-47 0 -73 -6zM122 341v-301
q21 -5 71 -5q82 0 134 37t52 115q0 76 -53 115t-134 39h-70z" />
    <glyph glyph-name="C" unicode="C" horiz-adv-x="507" 
d="M465 58l13 -38q-58 -29 -155 -29q-57 0 -106.5 19.5t-90.5 59t-65 107t-24 155.5q0 163 84.5 257t220.5 94q86 0 133 -25l-15 -40q-52 25 -120 25q-115 0 -185 -80t-70 -229q0 -146 67.5 -224.5t183.5 -78.5q75 0 129 27z" />
    <glyph glyph-name="D" unicode="D" horiz-adv-x="578" 
d="M76 1v664q77 14 146 14q156 0 232 -78q87 -85 87 -246q0 -169 -84 -264q-84 -96 -255 -96q-78 0 -126 6zM122 631v-592q31 -4 86 -4q138 0 211.5 79.5t73.5 236.5q1 137 -67 212.5t-206 75.5q-50 0 -98 -8z" />
    <glyph glyph-name="E" unicode="E" horiz-adv-x="425" 
d="M364 375v-40h-242v-295h272v-40h-318v674h303v-40h-257v-259h242z" />
    <glyph glyph-name="F" unicode="F" horiz-adv-x="418" 
d="M76 0v674h303v-40h-257v-269h237v-40h-237v-325h-46z" />
    <glyph glyph-name="G" unicode="G" horiz-adv-x="561" 
d="M506 334v-308q-78 -33 -170 -33q-130 0 -211 82q-88 88 -88 257q0 159 86.5 254t229.5 95q81 0 137 -27l-15 -39q-54 25 -124 25q-120 0 -193 -79t-73 -223q0 -149 69.5 -226.5t188.5 -77.5q80 0 116 19v243h-140v38h187z" />
    <glyph glyph-name="H" unicode="H" horiz-adv-x="570" 
d="M76 674h46v-298h326v298h46v-674h-46v337h-326v-337h-46v674z" />
    <glyph glyph-name="I" unicode="I" horiz-adv-x="198" 
d="M76 674h46v-674h-46v674z" />
    <glyph glyph-name="J" unicode="J" horiz-adv-x="315" 
d="M200 206v468h46v-476q0 -208 -168 -208q-38 0 -70 12l9 39q26 -11 59 -11q64 0 94 38t30 138z" />
    <glyph glyph-name="K" unicode="K" horiz-adv-x="460" 
d="M76 0v674h46v-338h3q10 15 54 72l212 266h56l-232 -286l250 -388h-54l-228 355l-61 -75v-280h-46z" />
    <glyph glyph-name="L" unicode="L" horiz-adv-x="410" 
d="M76 0v674h46v-635h270v-39h-316z" />
    <glyph glyph-name="M" unicode="M" horiz-adv-x="717" 
d="M613 0l-18 321q-14 232 -12 296h-4q-31 -110 -81 -252l-128 -365h-30l-121 354q-58 170 -80 263h-3q-1 -121 -13 -305l-18 -312h-46l45 674h53l130 -376q53 -161 69 -222h3q15 62 69 221l132 377h57l42 -674h-46z" />
    <glyph glyph-name="N" unicode="N" horiz-adv-x="577" 
d="M120 0h-44v674h44l225 -383q78 -139 117 -226l2 1q-8 117 -8 284v324h45v-674h-44l-223 384q-86 151 -118 226l-2 -1q6 -89 6 -285v-324z" />
    <glyph glyph-name="O" unicode="O" horiz-adv-x="597" 
d="M304 684q112 0 184 -90.5t72 -251.5q0 -172 -76.5 -262t-189.5 -90q-111 0 -184 90.5t-73 251.5q0 166 75.5 259t191.5 93zM299 645q-72 0 -122 -48t-71 -116t-21 -148q0 -120 56.5 -212t156.5 -92q69 0 119 46t72.5 115t22.5 150q0 74 -21 141t-71 115.5t-121 48.5z" />
    <glyph glyph-name="P" unicode="P" horiz-adv-x="460" 
d="M76 0v666q65 13 129 13q110 0 163 -55q50 -48 50 -133q0 -78 -42 -131q-62 -77 -185 -77q-45 0 -69 6v-289h-46zM122 632v-302q25 -8 70 -8q83 0 131 43t48 123q0 72 -44.5 111.5t-123.5 39.5q-53 0 -81 -7z" />
    <glyph glyph-name="Q" unicode="Q" horiz-adv-x="597" 
d="M566 -43l-15 -42q-66 17 -220 66q-29 9 -33 9q-114 2 -187.5 91t-73.5 251q0 168 75.5 260t192.5 92q111 0 183 -90.5t72 -251.5q0 -136 -49.5 -220.5t-136.5 -114.5v-3q94 -27 192 -47zM297 29h1q101 0 157.5 92t56.5 219q0 74 -21 141t-70.5 115.5t-118.5 48.5
q-73 0 -124 -48.5t-72 -117t-21 -147.5q0 -76 22.5 -143t72 -113.5t117.5 -46.5z" />
    <glyph glyph-name="R" unicode="R" horiz-adv-x="464" 
d="M76 0v665q58 14 129 14q111 0 167 -54q46 -46 46 -122q0 -129 -126 -176v-2q77 -23 102 -149q28 -141 46 -176h-48q-14 27 -41 166q-14 74 -47.5 107.5t-96.5 35.5h-85v-309h-46zM122 632v-286h86q74 0 118.5 41t44.5 108q0 73 -44 109t-123 36q-52 0 -82 -8z" />
    <glyph glyph-name="S" unicode="S" horiz-adv-x="427" 
d="M39 32l17 38q58 -39 129 -39q70 0 111 38t41 101q0 55 -29.5 92t-93.5 66q-159 66 -159 186q0 74 52 121.5t132 47.5t120 -30l-18 -39q-42 30 -106 30q-67 0 -100.5 -36.5t-33.5 -83.5q0 -55 30 -88t98 -65q80 -39 117 -84t37 -112q0 -79 -53.5 -131.5t-146.5 -52.5
q-40 0 -81 12t-63 29z" />
    <glyph glyph-name="T" unicode="T" horiz-adv-x="425" 
d="M190 0v635h-192v39h429v-39h-191v-635h-46z" />
    <glyph glyph-name="U" unicode="U" horiz-adv-x="568" 
d="M76 674h46v-423q0 -114 43.5 -167.5t114.5 -53.5q77 0 121.5 54.5t44.5 166.5v423h46v-418q0 -139 -60 -202.5t-154 -63.5q-89 0 -145.5 60.5t-56.5 195.5v428z" />
    <glyph glyph-name="V" unicode="V" horiz-adv-x="477" 
d="M254 0h-43l-203 674h48l106 -352q53 -173 72 -263h3q19 91 76 263l115 352h48z" />
    <glyph glyph-name="W" unicode="W" horiz-adv-x="766" 
d="M226 0h-43l-165 674h47l90 -374q40 -169 51 -236h3q9 62 56 237l99 373h44l92 -368q42 -172 51 -242h3q15 86 55 238l99 372h47l-183 -674h-44l-95 390q-35 141 -47 226h-2q-13 -83 -54 -227z" />
    <glyph glyph-name="X" unicode="X" horiz-adv-x="496" 
d="M468 0h-53l-93 171q-48 80 -75 134h-3q-37 -73 -73 -135l-90 -170h-52l193 342l-186 332h52l98 -179q42 -73 62 -112h2q18 38 62 113l100 178h52l-191 -327z" />
    <glyph glyph-name="Y" unicode="Y" horiz-adv-x="469" 
d="M259 0h-46v295l-195 379h51l98 -193q53 -105 71 -149h2q12 30 73 151l101 191h51l-206 -379v-295z" />
    <glyph glyph-name="Z" unicode="Z" horiz-adv-x="479" 
d="M31 0v30l357 602v3h-328v39h386v-30l-358 -602v-3h361v-39h-418z" />
    <glyph glyph-name="bracketleft" unicode="[" horiz-adv-x="261" 
d="M247 -112h-157v798h157v-36h-115v-726h115v-36z" />
    <glyph glyph-name="backslash" unicode="\" horiz-adv-x="328" 
d="M328 -40h-46l-282 724h46z" />
    <glyph glyph-name="bracketright" unicode="]" horiz-adv-x="261" 
d="M14 686h157v-798h-157v36h115v726h-115v36z" />
    <glyph glyph-name="asciicircum" unicode="^" horiz-adv-x="596" 
d="M523 196h-45l-179 407h-2l-179 -407h-45l204 454h42z" />
    <glyph glyph-name="underscore" unicode="_" horiz-adv-x="500" 
d="M0 -75h500v-50h-500v50z" />
    <glyph glyph-name="grave" unicode="`" 
d="M37 685h66l87 -136h-35z" />
    <glyph glyph-name="a" unicode="a" horiz-adv-x="416" 
d="M346 311v-199q0 -70 6 -112h-42l-6 64h-3q-19 -31 -53.5 -52.5t-80.5 -21.5q-61 0 -96 38.5t-35 93.5q0 84 68.5 129.5t195.5 44.5v14q0 141 -111 141q-59 0 -105 -32l-14 34q53 37 126 37q150 0 150 -179zM300 153v104q-215 5 -215 -129q0 -49 25 -74t62 -25
q48 0 80.5 27t43.5 68q4 13 4 29z" />
    <glyph glyph-name="b" unicode="b" horiz-adv-x="497" 
d="M74 107v598h46v-306h2q46 91 153 91q80 0 131.5 -66.5t51.5 -179.5q0 -122 -57.5 -188t-134.5 -66q-100 0 -149 91h-3l-3 -81h-41q4 58 4 107zM120 288v-108q0 -18 3 -33q15 -58 53 -88t85 -30q72 0 111 60t39 154q0 87 -39 147.5t-109 60.5q-47 0 -86 -35t-52 -88
q-5 -20 -5 -40z" />
    <glyph glyph-name="c" unicode="c" horiz-adv-x="399" 
d="M358 55l12 -36q-51 -28 -121 -28q-94 0 -152 67t-58 178q0 110 62.5 182t162.5 72q69 0 108 -26l-16 -39q-45 25 -98 25q-82 0 -127 -62t-45 -150q0 -94 47 -150.5t123 -56.5q50 0 102 24z" />
    <glyph glyph-name="d" unicode="d" horiz-adv-x="491" 
d="M371 705h47v-598q0 -49 4 -107h-42l-3 83h-3q-17 -40 -56 -66.5t-94 -26.5q-80 0 -132.5 66t-52.5 177q0 118 56 187.5t137 69.5q49 0 84.5 -21.5t52.5 -56.5h2v293zM371 187v106q0 21 -3 41q-10 50 -46.5 83.5t-85.5 33.5q-70 0 -110 -60.5t-40 -153.5q0 -88 37.5 -148
t108.5 -60q46 0 83 30t52 90q4 16 4 38z" />
    <glyph glyph-name="e" unicode="e" horiz-adv-x="438" 
d="M399 249h-314q0 -116 46 -167t118 -51q71 0 115 25l12 -36q-48 -29 -133 -29q-95 0 -149.5 67t-54.5 175q0 117 54 187t140 70q49 0 84 -22t52 -57t24 -68t7 -65q0 -20 -1 -29zM87 286h265q1 69 -30 117t-95 48q-63 0 -98 -49.5t-42 -115.5z" />
    <glyph glyph-name="f" unicode="f" horiz-adv-x="241" 
d="M126 0h-46v442h-66v38h66v29q0 113 48 165q40 41 100 41q41 0 65 -15l-14 -37q-24 12 -55 12q-56 0 -77 -44.5t-21 -120.5v-30h117v-38h-117v-442z" />
    <glyph glyph-name="g" unicode="g" horiz-adv-x="491" 
d="M418 349v-280q0 -91 -14.5 -141t-44.5 -80q-54 -54 -146 -54q-87 0 -136 36l16 37q53 -34 126 -34q152 0 152 186v65h-2q-18 -37 -55.5 -60.5t-89.5 -23.5q-80 0 -132.5 66.5t-52.5 170.5q0 122 59 187.5t136 65.5q99 0 140 -84h2l2 74h44q-4 -66 -4 -131zM371 192v111
q0 27 -5 43q-13 44 -46.5 74.5t-83.5 30.5q-68 0 -109 -57.5t-41 -151.5q0 -91 39.5 -147t109.5 -56q43 0 78 26t51 77q7 24 7 50z" />
    <glyph glyph-name="h" unicode="h" horiz-adv-x="487" 
d="M74 0v705h46v-301h2q21 39 58 62q40 24 87 24q16 0 33 -3.5t38.5 -16t37.5 -31.5t27.5 -54.5t11.5 -81.5v-303h-46v295q0 68 -27 111.5t-88 43.5q-45 0 -79.5 -29.5t-48.5 -75.5q-6 -17 -6 -44v-301h-46z" />
    <glyph glyph-name="i" unicode="i" horiz-adv-x="195" 
d="M120 0h-46v480h46v-480zM97 653q17 0 27 -11t10 -29q0 -17 -10.5 -28.5t-27.5 -11.5q-15 0 -25 11.5t-10 28.5t10 28.5t26 11.5z" />
    <glyph glyph-name="j" unicode="j" horiz-adv-x="200" 
d="M-34 -206l-7 37q63 7 90 42q18 23 25 61.5t7 125.5v420h46v-448q0 -71 -10 -113.5t-37 -74.5q-22 -24 -55 -36.5t-59 -13.5zM105 653q16 0 26 -11.5t10 -28.5t-10 -28.5t-28 -11.5q-15 0 -25 11.5t-10 28.5t10.5 28.5t26.5 11.5z" />
    <glyph glyph-name="k" unicode="k" horiz-adv-x="392" 
d="M120 705v-456h2q19 26 41 51l153 180h55l-176 -200l199 -280h-55l-175 250l-44 -50v-200h-46v705h46z" />
    <glyph glyph-name="l" unicode="l" horiz-adv-x="199" 
d="M74 0v705h46v-705h-46z" />
    <glyph glyph-name="m" unicode="m" horiz-adv-x="748" 
d="M74 0v366q0 40 -4 114h43l3 -78h2q47 88 140 88q44 0 77.5 -26t48.5 -71h2q20 40 48 63q43 34 100 34q22 0 43.5 -7.5t45.5 -27t39 -60.5t15 -99v-296h-46v288q0 76 -27.5 119t-84.5 43q-39 0 -70 -26.5t-44 -66.5q-6 -23 -6 -48v-309h-47v307q0 64 -27 103.5t-80 39.5
q-42 0 -74.5 -30t-44.5 -75q-6 -21 -6 -46v-299h-46z" />
    <glyph glyph-name="n" unicode="n" horiz-adv-x="487" 
d="M74 0v366q0 40 -4 114h43l3 -78h2q19 39 58 63.5t89 24.5q17 0 34.5 -4t39 -16.5t38 -32t27.5 -55t11 -81.5v-301h-46v293q0 157 -117 157q-44 0 -79 -29.5t-47 -77.5q-6 -18 -6 -42v-301h-46z" />
    <glyph glyph-name="o" unicode="o" horiz-adv-x="478" 
d="M242 490q87 0 142 -66.5t55 -180.5q0 -124 -61 -188.5t-143 -64.5q-84 0 -140 66t-56 181q0 120 59 186.5t144 66.5zM240 451q-52 0 -88 -34t-51 -80t-15 -98q0 -84 42 -147t110 -63q69 0 111.5 63.5t42.5 149.5q0 47 -13.5 92t-49.5 81t-89 36z" />
    <glyph glyph-name="p" unicode="p" horiz-adv-x="497" 
d="M74 -196v524q0 72 -4 152h44l3 -83h2q49 93 154 93q82 0 133.5 -66t51.5 -178q0 -124 -56.5 -190t-139.5 -66q-96 0 -140 80h-2v-266h-46zM120 287v-102q0 -20 3 -38q14 -57 52 -87.5t85 -30.5q73 0 112 60t39 155q0 86 -39 146.5t-109 60.5q-47 0 -86.5 -35t-51.5 -89
q-5 -33 -5 -40z" />
    <glyph glyph-name="q" unicode="q" horiz-adv-x="490" 
d="M371 -196v270h-3q-16 -36 -53.5 -60t-89.5 -24q-80 0 -133 66t-53 177q0 126 60 191.5t138 65.5q49 0 84.5 -23t52.5 -62h2l2 75h44q-4 -66 -4 -131v-545h-47zM371 186v107q0 21 -3 41q-11 49 -47 83t-84 34q-70 0 -110.5 -60t-40.5 -154q0 -88 37.5 -148t110.5 -60
q43 0 78 27t52 82q7 20 7 48z" />
    <glyph glyph-name="r" unicode="r" horiz-adv-x="272" 
d="M74 0v346q0 50 -4 134h43l2 -92h2q15 44 49 73t78 29q11 0 16 -1v-46q-5 1 -18 1q-47 0 -79 -37t-40 -93q-3 -21 -3 -44v-270h-46z" />
    <glyph glyph-name="s" unicode="s" horiz-adv-x="342" 
d="M38 23l17 38q51 -31 97 -31q49 0 76 25.5t27 65.5q0 36 -21 61t-69 48q-115 53 -115 133q0 54 38.5 90.5t100.5 36.5q58 0 98 -29l-19 -38q-37 28 -85 28q-41 0 -64 -23.5t-23 -57.5q0 -33 19.5 -53.5t68.5 -44.5q57 -26 87 -59t30 -85q0 -63 -42.5 -100t-109.5 -37
q-66 0 -111 32z" />
    <glyph glyph-name="t" unicode="t" horiz-adv-x="282" 
d="M91 566l47 20v-106h123v-38h-123v-317q0 -95 64 -95q28 0 47 7l6 -36q-25 -10 -60 -10q-51 0 -77 32q-27 32 -27 113v306h-74v38h74v86z" />
    <glyph glyph-name="u" unicode="u" horiz-adv-x="481" 
d="M407 480v-362q0 -48 4 -118h-42l-4 75h-2q-18 -34 -55.5 -59.5t-89.5 -25.5q-60 0 -103.5 46t-43.5 155v289h46v-279q0 -171 112 -171q46 0 79 28.5t46 65.5q7 26 7 50v306h46z" />
    <glyph glyph-name="v" unicode="v" horiz-adv-x="411" 
d="M16 480h48l102 -300q20 -54 39 -122h3q11 42 40 122l102 300h48l-174 -480h-40z" />
    <glyph glyph-name="w" unicode="w" horiz-adv-x="666" 
d="M21 480h47l75 -267q24 -87 38 -152h3q13 58 43 151l86 268h42l82 -263q26 -82 44 -156h3q10 53 40 153l77 266h47l-148 -480h-39l-84 269q-26 82 -43 157h-2q-15 -65 -45 -159l-87 -267h-40z" />
    <glyph glyph-name="x" unicode="x" horiz-adv-x="392" 
d="M21 480h51l74 -116q23 -35 49 -83h2q11 20 51 83l73 116h51l-152 -235l155 -245h-52l-76 121q-10 15 -53 90h-2q-13 -26 -53 -90l-75 -121h-52l159 245z" />
    <glyph glyph-name="y" unicode="y" horiz-adv-x="403" 
d="M13 480h49l110 -307q17 -50 32 -106h2l33 108l103 305h49l-121 -331q-45 -129 -76.5 -198.5t-74.5 -112.5q-41 -40 -80 -56l-18 39q46 21 80 59q45 51 70 113q6 18 6 23t-5 20z" />
    <glyph glyph-name="z" unicode="z" horiz-adv-x="369" 
d="M16 0v28l232 343l49 68v2h-260v39h316l-1 -31l-233 -342l-46 -66v-2h279v-39h-336z" />
    <glyph glyph-name="braceleft" unicode="{" horiz-adv-x="261" 
d="M31 270v35q80 -1 80 79q0 22 -9 87q-8 60 -8 89q0 64 36.5 95t94.5 31h11v-36h-17q-44 -2 -63 -24t-19 -67q0 -28 8 -82t8 -81q1 -88 -64 -107v-2q65 -19 64 -108q0 -28 -8 -80q-8 -56 -8 -83q0 -88 82 -92h17v-36h-11q-58 0 -94.5 32t-36.5 100q0 30 8 86q9 65 9 86
q0 80 -80 78z" />
    <glyph glyph-name="bar" unicode="|" horiz-adv-x="205" 
d="M81 750h43v-1000h-43v1000z" />
    <glyph glyph-name="braceright" unicode="}" horiz-adv-x="261" 
d="M230 305v-35q-80 2 -80 -78q0 -34 9 -86q8 -56 8 -86q0 -68 -36.5 -100t-95.5 -32h-10v36h16q83 4 83 92q0 27 -8 83q-9 47 -9 80q-1 89 64 108v2q-65 19 -64 107q0 32 9 81q8 54 8 82q0 45 -19 67t-64 24h-16v36h10q59 0 95.5 -31t36.5 -95q0 -29 -8 -89q-9 -52 -9 -87
q0 -80 80 -79z" />
    <glyph glyph-name="asciitilde" unicode="~" horiz-adv-x="596" 
d="M99 225h-38q-4 55 26 89.5t78 34.5q43 0 137 -42t138 -42q30 0 44.5 23t13.5 60h37q4 -62 -25 -93t-75 -31q-48 0 -141 40q-6 3 -27 12.5t-29.5 12.5l-24.5 9t-28 8t-24 2q-30 0 -46.5 -21.5t-15.5 -61.5z" />
    <glyph glyph-name="uni00A0" unicode="&#xa0;" horiz-adv-x="200" 
 />
    <glyph glyph-name="exclamdown" unicode="&#xa1;" horiz-adv-x="200" 
d="M128 -194h-55l8 496h38zM100 489h1q17 0 27 -12.5t10 -31.5q0 -18 -10.5 -30t-27.5 -12t-27.5 12t-10.5 30q0 19 11 31.5t27 12.5z" />
    <glyph glyph-name="cent" unicode="&#xa2;" horiz-adv-x="449" 
d="M279 -13h-40v101q-74 9 -120 59q-56 59 -56 179q0 97 48.5 163t127.5 78v99h40v-98q60 0 102 -25l-16 -39q-43 27 -100 27q-72 0 -114.5 -61.5t-42.5 -143.5q0 -90 43 -144.5t111 -54.5q57 0 107 25l12 -34q-40 -26 -102 -30v-101z" />
    <glyph glyph-name="sterling" unicode="&#xa3;" horiz-adv-x="449" 
d="M415 0h-366v30q49 25 80 78t31 114q0 46 -7 92h-99v37h95q-14 75 -14 125q0 85 46 134.5t114 49.5q62 0 95 -24l-16 -36q-35 21 -84 21q-55 0 -82.5 -38t-27.5 -100q0 -54 14 -132h135v-37h-130q10 -93 -1 -141q-17 -76 -78 -130v-2h295v-41z" />
    <glyph glyph-name="currency" unicode="&#xa4;" horiz-adv-x="449" 
d="M224 524h1q66 0 107 -43l66 69l30 -31l-71 -67q32 -50 32 -119q0 -75 -31 -123l68 -69l-30 -31l-64 70q-42 -44 -109 -44q-30 0 -59.5 11t-47.5 30l-62 -67l-30 31l67 66q-35 50 -35 120q0 74 37 125l-69 67l31 31l62 -69q43 43 107 43zM223 485h-1q-56 0 -89 -44.5
t-33 -112.5q0 -73 37.5 -113t84.5 -40q51 -1 87.5 39t36.5 118q0 63 -32.5 108t-90.5 45z" />
    <glyph glyph-name="yen" unicode="&#xa5;" horiz-adv-x="449" 
d="M240 0h-44v190h-145v35h145v79h-145v36h128l-155 310h49l109 -223q24 -49 39 -85h3q10 30 38 87l115 221h49l-169 -310h129v-36h-146v-79h146v-35h-146v-190z" />
    <glyph glyph-name="brokenbar" unicode="&#xa6;" horiz-adv-x="205" 
d="M81 174h43v-350h-43v350zM81 674h43v-350h-43v350z" />
    <glyph glyph-name="section" unicode="&#xa7;" horiz-adv-x="460" 
d="M98 357v-1q0 -61 107 -103q76 -29 112 -55q44 32 44 93q0 69 -93 105q-88 34 -118 54q-52 -39 -52 -93zM366 650l-19 -35q-42 31 -104 31q-45 0 -78 -24t-33 -66q0 -23 9 -40t32 -30.5t38 -20t51 -20.5q69 -26 105.5 -58.5t36.5 -90.5q0 -69 -60 -120q35 -33 35 -86
q0 -68 -47.5 -105t-119.5 -37q-86 0 -132 39l19 35q50 -38 117 -38q51 0 85.5 26t34.5 73q0 41 -27 67.5t-100 55.5q-80 31 -116.5 63t-36.5 86q0 63 68 115q-35 28 -35 79q0 60 46.5 96.5t112.5 36.5q71 0 118 -32z" />
    <glyph glyph-name="dieresis" unicode="&#xa8;" 
d="M70 575h-1q-16 0 -26 11t-10 27q0 15 10.5 26t26.5 11q15 0 25 -11t10 -26t-10 -26.5t-25 -11.5zM231 575h-1q-15 0 -25.5 11.5t-10.5 26.5t10.5 26t26.5 11q15 0 25.5 -11t10.5 -26q0 -16 -10 -27t-26 -11z" />
    <glyph glyph-name="copyright" unicode="&#xa9;" horiz-adv-x="677" 
d="M340 648h1q125 0 212 -90t87 -218q0 -129 -87 -219.5t-213 -90.5q-127 0 -215 90.5t-88 219.5q0 128 88 218t215 90zM340 616h-1q-111 0 -186 -80t-75 -200q0 -116 75 -195t187 -79q110 -2 184.5 78.5t74.5 199.5q0 117 -74.5 196.5t-184.5 79.5zM474 494l-10 -31
q-42 24 -99 24q-74 0 -111.5 -42t-37.5 -108q0 -65 39 -108t112 -43q63 0 103 27l10 -29q-45 -31 -123 -31q-84 0 -133 51.5t-49 129.5q0 82 55.5 134t133.5 52q77 0 110 -26z" />
    <glyph glyph-name="ordfeminine" unicode="&#xaa;" horiz-adv-x="305" 
d="M266 265h-38l-4 44h-2q-33 -49 -95 -49q-43 0 -69.5 26t-26.5 67q0 54 50.5 85t139.5 28v13q0 28 -17.5 52t-59.5 24q-45 0 -76 -26l-13 29q39 32 97 32q109 0 109 -131v-118q0 -45 5 -76zM221 362v71q-148 3 -148 -78q0 -29 18.5 -44.5t44.5 -15.5q46 0 73 39
q12 17 12 28z" />
    <glyph glyph-name="guillemotleft" unicode="&#xab;" horiz-adv-x="375" 
d="M208 428l-130 -176l130 -176h-48l-130 176l130 176h48zM349 428l-130 -176l131 -176h-49l-130 176l131 176h47z" />
    <glyph glyph-name="logicalnot" unicode="&#xac;" horiz-adv-x="596" 
d="M40 385h516v-255h-42v215h-474v40z" />
    <glyph glyph-name="uni00AD" unicode="&#xad;" horiz-adv-x="291" 
d="M30 288h236v-40h-236v40z" />
    <glyph glyph-name="registered" unicode="&#xae;" horiz-adv-x="387" 
d="M165 507v-69h-30v165q28 5 57 5q34 0 52 -13q17 -12 17 -35q0 -28 -33 -39v-2q20 -8 28 -40q7 -33 12 -41h-31q-6 8 -14 43q-6 26 -38 26h-20zM165 582v-51h21q43 0 43 26q0 27 -40 27q-14 0 -24 -2zM194 682h1q67 0 113 -45.5t46 -111.5q0 -67 -46 -113t-114 -46
q-67 0 -113.5 46t-46.5 113q0 66 46.5 111.5t113.5 45.5zM194 654h-1q-53 0 -89 -37.5t-36 -91.5q0 -55 36.5 -93t90.5 -38q53 -1 88.5 37t35.5 93t-35.5 92.5t-89.5 37.5z" />
    <glyph glyph-name="macron" unicode="&#xaf;" 
d="M49 625h203v-39h-203v39z" />
    <glyph glyph-name="degree" unicode="&#xb0;" horiz-adv-x="289" 
d="M152 686h1q54 0 87 -36.5t33 -87.5q0 -56 -37 -92t-86 -36q-52 0 -86 36t-34 87q0 55 35.5 92t86.5 37zM151 653h-1q-38 0 -60 -29t-22 -66q0 -38 24 -64t59 -26q36 0 59.5 26.5t23.5 66.5q0 35 -21.5 63.5t-61.5 28.5z" />
    <glyph glyph-name="plusminus" unicode="&#xb1;" horiz-adv-x="596" 
d="M277 567h42v-207h237v-40h-237v-215h-42v215h-237v40h237v207zM40 39h516v-39h-516v39z" />
    <glyph glyph-name="two.superior" unicode="&#xb2;" horiz-adv-x="268" 
d="M7 435v22l56 56q64 64 96.5 111.5t32.5 90.5q0 36 -20.5 58t-60.5 22q-39 0 -78 -32l-15 27q40 40 103 40q57 0 85.5 -32.5t28.5 -74.5q0 -52 -34 -102t-98 -111l-36 -37v-2h175v-36h-235z" />
    <glyph glyph-name="three.superior" unicode="&#xb3;" horiz-adv-x="261" 
d="M39 769l-14 31q41 30 95 30q51 0 77 -26t26 -64q0 -29 -18.5 -53.5t-51.5 -37.5v-2q37 -6 61.5 -33.5t24.5 -66.5q0 -48 -36.5 -82.5t-101.5 -34.5q-59 0 -96 26l14 33q36 -25 85 -25q46 0 69.5 24t22.5 57q0 42 -31.5 63t-80.5 21h-19v32h21q33 0 64 20t31 57
q0 24 -17 41t-49 17q-42 0 -76 -27z" />
    <glyph glyph-name="acute" unicode="&#xb4;" 
d="M203 685h66l-117 -136h-35z" />
    <glyph glyph-name="mu" unicode="&#xb5;" horiz-adv-x="483" 
d="M367 71h-2q-18 -31 -52.5 -55.5t-79.5 -24.5q-82 0 -114 61v-76q0 -129 11 -172h-43q-13 39 -13 160v516h46v-303q0 -63 27 -104.5t87 -41.5q46 0 77.5 28t45.5 65q7 26 7 50v306h46v-374q0 -41 9 -59t34 -19l-6 -37q-9 -1 -16 -1q-25 0 -43 19t-21 62z" />
    <glyph glyph-name="paragraph" unicode="&#xb6;" horiz-adv-x="460" 
d="M269 -51h-40v320h-7q-70 0 -127 49.5t-60 137.5q-1 42 11.5 79.5t40 69.5t78 50.5t118.5 18.5q57 0 94 -6v-719h-40v687h-68v-687z" />
    <glyph glyph-name="periodcentered" unicode="&#xb7;" horiz-adv-x="173" 
d="M86 219h-1q-16 0 -27 12t-11 30q0 19 11.5 31t28.5 12t27.5 -12t10.5 -31q0 -18 -10.5 -30t-28.5 -12z" />
    <glyph glyph-name="cedilla" unicode="&#xb8;" 
d="M147 2h36l-34 -56q28 -4 47.5 -22.5t19.5 -45.5q0 -38 -25.5 -57t-64.5 -19q-33 0 -60 17l12 33q23 -13 52 -13q20 0 33 8t12 26q0 39 -75 46z" />
    <glyph glyph-name="one.superior" unicode="&#xb9;" horiz-adv-x="206" 
d="M140 435h-40v350h-2l-70 -37l-8 33l85 44h35v-390z" />
    <glyph glyph-name="ordmasculine" unicode="&#xba;" horiz-adv-x="324" 
d="M164 590h1q64 0 101.5 -44t37.5 -120q-1 -81 -43 -123.5t-99 -42.5q-61 0 -101 44t-40 119q0 76 42.5 121.5t100.5 45.5zM162 556h-1q-47 0 -72.5 -40.5t-25.5 -91.5q0 -53 29.5 -91.5t69.5 -38.5q45 0 72.5 38t27.5 93q0 50 -25 90.5t-75 40.5z" />
    <glyph glyph-name="guillemotright" unicode="&#xbb;" horiz-adv-x="375" 
d="M156 252l-131 176h48l130 -176l-130 -176h-47zM297 252l-130 176h47l131 -176l-130 -176h-48z" />
    <glyph glyph-name="onequarter" unicode="&#xbc;" horiz-adv-x="675" 
d="M165 265h-40v350h-2l-70 -37l-8 33l85 44h35v-390zM151 -10h-39l371 670h39zM581 0h-40v112h-186v23l189 260h37v-250h60v-33h-60v-112zM541 145v138q0 17 3 62h-2q-17 -30 -34 -57l-103 -141v-2h136z" />
    <glyph glyph-name="onehalf" unicode="&#xbd;" horiz-adv-x="675" 
d="M149 265h-40v350h-2l-70 -37l-8 33l85 44h35v-390zM133 -10h-39l370 670h39zM390 0v22l56 56q64 64 96.5 111.5t32.5 90.5q0 36 -20.5 58t-59.5 22q-38 0 -78 -32l-15 27q38 40 103 40q57 0 85 -32.5t28 -74.5q0 -51 -33.5 -100.5t-98.5 -112.5l-35 -37v-2h174v-36h-235z
" />
    <glyph glyph-name="threequarters" unicode="&#xbe;" horiz-adv-x="675" 
d="M65 599l-14 30q39 31 94 31q52 0 78 -26t26 -64q0 -29 -18.5 -53.5t-51.5 -37.5v-2q37 -6 61.5 -33.5t24.5 -66.5q0 -48 -36.5 -82.5t-102.5 -34.5q-58 0 -95 26l14 33q36 -25 85 -25q46 0 69 24t23 57q-1 43 -32 63.5t-80 20.5h-19v32h21q33 1 63.5 20.5t31.5 56.5
q0 24 -17 41t-50 17q-43 0 -75 -27zM184 -10h-39l371 670h39zM590 0h-40v112h-187v23l189 260h38v-250h60v-33h-60v-112zM550 145v138q0 32 2 62h-2l-33 -57l-104 -141v-2h137z" />
    <glyph glyph-name="questiondown" unicode="&#xbf;" horiz-adv-x="355" 
d="M211 489h1q16 0 27 -12.5t11 -31.5q0 -18 -11 -31t-28 -13q-18 0 -29 13t-10 31q0 19 10.5 31.5t28.5 12.5zM187 304h43l4 -22q13 -94 -56 -188q-40 -53 -57 -88t-17 -74q0 -48 26.5 -73.5t74.5 -25.5q54 0 92 28l16 -35q-20 -15 -52.5 -25t-63.5 -10q-69 0 -106 40
t-37 98q0 45 20 83.5t63 96.5q62 85 52 170z" />
    <glyph glyph-name="Agrave" unicode="&#xc0;" horiz-adv-x="536" 
d="M388 235h-237l-74 -235h-47l218 674h45l218 -674h-47zM164 274h211l-70 214q-19 58 -34 130h-3q-11 -53 -33 -128zM142 820h71l99 -110h-41z" />
    <glyph glyph-name="Aacute" unicode="&#xc1;" horiz-adv-x="536" 
d="M388 235h-237l-74 -235h-47l218 674h45l218 -674h-47zM164 274h211l-70 214q-19 58 -34 130h-3q-11 -53 -33 -128zM328 820h71l-129 -110h-41z" />
    <glyph glyph-name="Acircumflex" unicode="&#xc2;" horiz-adv-x="536" 
d="M388 235h-237l-74 -235h-47l218 674h45l218 -674h-47zM164 274h211l-70 214q-19 58 -34 130h-3q-11 -53 -33 -128zM252 813h40l101 -103h-52l-68 69h-2l-68 -69h-50z" />
    <glyph glyph-name="Atilde" unicode="&#xc3;" horiz-adv-x="536" 
d="M388 235h-237l-74 -235h-47l218 674h45l218 -674h-47zM164 274h211l-70 214q-19 58 -34 130h-3q-11 -53 -33 -128zM193 716h-32q-1 36 15.5 60.5t44.5 24.5q17 0 53 -20q34 -17 47 -17t20 7.5t8 29.5h32q0 -79 -60 -79q-22 0 -55 19q-34 19 -46 19q-22 0 -27 -44z" />
    <glyph glyph-name="Adieresis" unicode="&#xc4;" horiz-adv-x="536" 
d="M388 235h-237l-74 -235h-47l218 674h45l218 -674h-47zM164 274h211l-70 214q-19 58 -34 130h-3q-11 -53 -33 -128zM189 722h-1q-16 0 -25.5 11t-9.5 28q0 16 10.5 27.5t25.5 11.5q16 0 26 -11.5t10 -27.5q0 -17 -9.5 -28t-26.5 -11zM353 722h-1q-15 0 -24.5 11t-9.5 28
q0 16 10.5 27.5t25.5 11.5q16 0 26 -11.5t10 -27.5q0 -17 -10 -28t-27 -11z" />
    <glyph glyph-name="Aring" unicode="&#xc5;" horiz-adv-x="536" 
d="M388 235h-237l-74 -235h-47l218 674h45l218 -674h-47zM164 274h211l-70 214q-19 58 -34 130h-3q-11 -53 -33 -128zM272 866h1q38 0 63 -25t25 -61q0 -35 -26 -59t-63 -24q-38 0 -63.5 24t-25.5 59q0 36 25.5 61t63.5 25zM271 838h-1q-22 0 -35.5 -17t-13.5 -41
q0 -21 14.5 -37.5t35.5 -16.5q22 0 36.5 16t14.5 40t-14.5 40t-36.5 16z" />
    <glyph glyph-name="AE" unicode="&#xc6;" horiz-adv-x="676" 
d="M50 0h-47l286 674h335l-1 -40h-261l25 -260h228v-40h-223l30 -294h226l-1 -40h-266l-28 263h-191zM179 301h171l-20 218q-10 118 -10 121h-5l-46 -117z" />
    <glyph glyph-name="Ccedilla" unicode="&#xc7;" horiz-adv-x="523" 
d="M465 58l13 -38q-57 -28 -153 -29l-28 -45q29 -4 48.5 -23t19.5 -47q0 -37 -26 -55.5t-63 -18.5q-32 0 -62 17l13 34q23 -14 52 -14q44 0 44 35q0 36 -75 46l41 73q-109 11 -180.5 95.5t-71.5 243.5q0 163 84.5 257t220.5 94q86 0 133 -25l-15 -40q-52 25 -120 25
q-115 0 -185 -80t-70 -229q0 -146 67.5 -224.5t183.5 -78.5q75 0 129 27z" />
    <glyph glyph-name="Egrave" unicode="&#xc8;" horiz-adv-x="425" 
d="M364 375v-40h-242v-295h272v-40h-318v674h303v-40h-257v-259h242zM102 820h71l99 -110h-41z" />
    <glyph glyph-name="Eacute" unicode="&#xc9;" horiz-adv-x="425" 
d="M364 375v-40h-242v-295h272v-40h-318v674h303v-40h-257v-259h242zM294 820h71l-129 -110h-41z" />
    <glyph glyph-name="Ecircumflex" unicode="&#xca;" horiz-adv-x="425" 
d="M364 375v-40h-242v-295h272v-40h-318v674h303v-40h-257v-259h242zM203 813h40l101 -103h-52l-68 69h-2l-68 -69h-50z" />
    <glyph glyph-name="Edieresis" unicode="&#xcb;" horiz-adv-x="425" 
d="M364 375v-40h-242v-295h272v-40h-318v674h303v-40h-257v-259h242zM143 727h-1q-16 0 -25.5 11t-9.5 28q0 16 10.5 27.5t25.5 11.5q16 0 26 -11.5t10 -27.5q0 -17 -9.5 -28t-26.5 -11zM307 727h-1q-15 0 -24.5 11t-9.5 28q0 16 10.5 27.5t25.5 11.5q16 0 26 -11.5
t10 -27.5q0 -17 -10 -28t-27 -11z" />
    <glyph glyph-name="Igrave" unicode="&#xcc;" horiz-adv-x="198" 
d="M76 674h46v-674h-46v674zM-31 820h71l99 -110h-41z" />
    <glyph glyph-name="Iacute" unicode="&#xcd;" horiz-adv-x="198" 
d="M76 674h46v-674h-46v674zM157 820h71l-129 -110h-41z" />
    <glyph glyph-name="Icircumflex" unicode="&#xce;" horiz-adv-x="198" 
d="M76 674h46v-674h-46v674zM79 813h40l101 -103h-52l-68 69h-2l-68 -69h-50z" />
    <glyph glyph-name="Idieresis" unicode="&#xcf;" horiz-adv-x="198" 
d="M76 674h46v-674h-46v674zM18 727h-1q-16 0 -25.5 11t-9.5 28q0 16 10.5 27.5t25.5 11.5q16 0 26 -11.5t10 -27.5q0 -17 -9.5 -28t-26.5 -11zM182 727h-1q-15 0 -24.5 11t-9.5 28q0 16 10.5 27.5t25.5 11.5q16 0 26 -11.5t10 -27.5q0 -17 -10 -28t-27 -11z" />
    <glyph glyph-name="Eth" unicode="&#xd0;" horiz-adv-x="584" 
d="M-3 326v38h84v302q70 14 147 14q156 0 232 -78q86 -84 86 -249q0 -170 -83 -264q-84 -95 -256 -95q-78 0 -126 6v326h-84zM310 364v-38h-182v-288q23 -4 86 -4q137 0 211 80t74 239q1 136 -67 212t-206 76q-55 0 -98 -9v-268h182z" />
    <glyph glyph-name="Ntilde" unicode="&#xd1;" horiz-adv-x="577" 
d="M120 0h-44v674h44l225 -383q78 -139 117 -226l2 1q-8 117 -8 284v324h45v-674h-44l-223 384q-86 151 -118 226l-2 -1q6 -89 6 -285v-324zM216 716h-32q-1 36 15.5 60.5t44.5 24.5q17 0 53 -20q34 -17 47 -17t20 7.5t8 29.5h32q0 -79 -60 -79q-22 0 -55 19q-34 19 -46 19
q-22 0 -27 -44z" />
    <glyph glyph-name="Ograve" unicode="&#xd2;" horiz-adv-x="597" 
d="M304 684q112 0 184 -90.5t72 -251.5q0 -172 -76.5 -262t-189.5 -90q-111 0 -184 90.5t-73 251.5q0 166 75.5 259t191.5 93zM299 645q-72 0 -122 -48t-71 -116t-21 -148q0 -120 56.5 -212t156.5 -92q69 0 119 46t72.5 115t22.5 150q0 74 -21 141t-71 115.5t-121 48.5z
M170 823h71l99 -110h-41z" />
    <glyph glyph-name="Oacute" unicode="&#xd3;" horiz-adv-x="597" 
d="M304 684q112 0 184 -90.5t72 -251.5q0 -172 -76.5 -262t-189.5 -90q-111 0 -184 90.5t-73 251.5q0 166 75.5 259t191.5 93zM299 645q-72 0 -122 -48t-71 -116t-21 -148q0 -120 56.5 -212t156.5 -92q69 0 119 46t72.5 115t22.5 150q0 74 -21 141t-71 115.5t-121 48.5z
M354 823h71l-129 -110h-41z" />
    <glyph glyph-name="Ocircumflex" unicode="&#xd4;" horiz-adv-x="597" 
d="M304 684q112 0 184 -90.5t72 -251.5q0 -172 -76.5 -262t-189.5 -90q-111 0 -184 90.5t-73 251.5q0 166 75.5 259t191.5 93zM299 645q-72 0 -122 -48t-71 -116t-21 -148q0 -120 56.5 -212t156.5 -92q69 0 119 46t72.5 115t22.5 150q0 74 -21 141t-71 115.5t-121 48.5z
M278 816h40l101 -103h-52l-68 69h-2l-68 -69h-50z" />
    <glyph glyph-name="Otilde" unicode="&#xd5;" horiz-adv-x="597" 
d="M304 684q112 0 184 -90.5t72 -251.5q0 -172 -76.5 -262t-189.5 -90q-111 0 -184 90.5t-73 251.5q0 166 75.5 259t191.5 93zM299 645q-72 0 -122 -48t-71 -116t-21 -148q0 -120 56.5 -212t156.5 -92q69 0 119 46t72.5 115t22.5 150q0 74 -21 141t-71 115.5t-121 48.5z
M220 719h-32q-1 36 15.5 60.5t44.5 24.5q17 0 53 -20q34 -17 47 -17t20 7.5t8 29.5h32q0 -79 -60 -79q-22 0 -55 19q-34 19 -46 19q-22 0 -27 -44z" />
    <glyph glyph-name="Odieresis" unicode="&#xd6;" horiz-adv-x="597" 
d="M304 684q112 0 184 -90.5t72 -251.5q0 -172 -76.5 -262t-189.5 -90q-111 0 -184 90.5t-73 251.5q0 166 75.5 259t191.5 93zM299 645q-72 0 -122 -48t-71 -116t-21 -148q0 -120 56.5 -212t156.5 -92q69 0 119 46t72.5 115t22.5 150q0 74 -21 141t-71 115.5t-121 48.5z
M216 727h-1q-16 0 -25.5 11t-9.5 28q0 16 10.5 27.5t25.5 11.5q16 0 26 -11.5t10 -27.5q0 -17 -9.5 -28t-26.5 -11zM380 727h-1q-15 0 -24.5 11t-9.5 28q0 16 10.5 27.5t25.5 11.5q16 0 26 -11.5t10 -27.5q0 -17 -10 -28t-27 -11z" />
    <glyph glyph-name="multiply" unicode="&#xd7;" horiz-adv-x="596" 
d="M40 496l29 30l229 -234l229 234l29 -30l-229 -233l228 -233l-29 -30l-228 233l-229 -233l-29 30l229 233z" />
    <glyph glyph-name="Oslash" unicode="&#xd8;" horiz-adv-x="597" 
d="M82 -28l-28 21l58 90q-75 95 -75 250q0 166 76 258.5t188 92.5q91 0 157 -59l52 77l32 -20l-57 -87q75 -96 75 -252q0 -173 -76.5 -263t-183.5 -90q-96 0 -163 63zM139 127l295 459q-61 59 -134 59q-71 0 -122 -49t-72 -116t-21 -142q0 -116 52 -212zM457 551l-296 -459
q55 -63 137 -63q69 0 119 47t72.5 116t22.5 148q0 120 -52 211h-3z" />
    <glyph glyph-name="Ugrave" unicode="&#xd9;" horiz-adv-x="568" 
d="M76 674h46v-423q0 -114 43.5 -167.5t114.5 -53.5q77 0 121.5 54.5t44.5 166.5v423h46v-418q0 -139 -60 -202.5t-154 -63.5q-89 0 -145.5 60.5t-56.5 195.5v428zM155 820h71l99 -110h-41z" />
    <glyph glyph-name="Uacute" unicode="&#xda;" horiz-adv-x="568" 
d="M76 674h46v-423q0 -114 43.5 -167.5t114.5 -53.5q77 0 121.5 54.5t44.5 166.5v423h46v-418q0 -139 -60 -202.5t-154 -63.5q-89 0 -145.5 60.5t-56.5 195.5v428zM350 820h71l-129 -110h-41z" />
    <glyph glyph-name="Ucircumflex" unicode="&#xdb;" horiz-adv-x="568" 
d="M76 674h46v-423q0 -114 43.5 -167.5t114.5 -53.5q77 0 121.5 54.5t44.5 166.5v423h46v-418q0 -139 -60 -202.5t-154 -63.5q-89 0 -145.5 60.5t-56.5 195.5v428zM265 813h40l101 -103h-52l-68 69h-2l-68 -69h-50z" />
    <glyph glyph-name="Udieresis" unicode="&#xdc;" horiz-adv-x="568" 
d="M76 674h46v-423q0 -114 43.5 -167.5t114.5 -53.5q77 0 121.5 54.5t44.5 166.5v423h46v-418q0 -139 -60 -202.5t-154 -63.5q-89 0 -145.5 60.5t-56.5 195.5v428zM201 727h-1q-16 0 -25.5 11t-9.5 28q0 16 10.5 27.5t25.5 11.5q16 0 26 -11.5t10 -27.5q0 -17 -9.5 -28
t-26.5 -11zM365 727h-1q-15 0 -24.5 11t-9.5 28q0 16 10.5 27.5t25.5 11.5q16 0 26 -11.5t10 -27.5q0 -17 -10 -28t-27 -11z" />
    <glyph glyph-name="Yacute" unicode="&#xdd;" horiz-adv-x="469" 
d="M259 0h-46v295l-195 379h51l98 -193q53 -105 71 -149h2q12 30 73 151l101 191h51l-206 -379v-295zM304 815h71l-129 -110h-41z" />
    <glyph glyph-name="Thorn" unicode="&#xde;" horiz-adv-x="459" 
d="M76 0v674h45v-140q43 8 90 8q106 0 160 -54q47 -47 47 -121q0 -92 -62.5 -145.5t-165.5 -53.5q-34 0 -69 5v-173h-45zM121 495v-282q33 -6 70 -6q85 0 132.5 40.5t47.5 113.5q0 69 -43 105.5t-122 36.5q-51 0 -85 -8z" />
    <glyph glyph-name="germandbls" unicode="&#xdf;" horiz-adv-x="479" 
d="M120 0h-46v464q0 149 66 209q46 42 116 42q59 0 103 -39.5t44 -116.5q0 -46 -23 -83q-79 -30 -79 -88q0 -19 9.5 -38t17.5 -28l31 -34q39 -39 58.5 -72t19.5 -78q0 -67 -44.5 -107.5t-114.5 -40.5q-57 0 -97 21l14 39q42 -21 85 -21q52 0 82 29t30 73q0 64 -63 124
q-37 36 -54.5 63.5t-17.5 62.5q0 81 92 122q9 23 9 49q0 63 -31.5 93t-79.5 30q-63 0 -95 -51t-32 -166v-458z" />
    <glyph glyph-name="agrave" unicode="&#xe0;" horiz-adv-x="416" 
d="M77 685h66l87 -136h-35zM346 311v-199q0 -70 6 -112h-42l-6 64h-3q-19 -31 -53.5 -52.5t-80.5 -21.5q-61 0 -96 38.5t-35 93.5q0 84 68.5 129.5t195.5 44.5v14q0 141 -111 141q-59 0 -105 -32l-14 34q53 37 126 37q150 0 150 -179zM300 153v104q-215 5 -215 -129
q0 -49 25 -74t62 -25q48 0 80.5 27t43.5 68q4 13 4 29z" />
    <glyph glyph-name="aacute" unicode="&#xe1;" horiz-adv-x="416" 
d="M253 685h66l-117 -136h-35zM346 311v-199q0 -70 6 -112h-42l-6 64h-3q-19 -31 -53.5 -52.5t-80.5 -21.5q-61 0 -96 38.5t-35 93.5q0 84 68.5 129.5t195.5 44.5v14q0 141 -111 141q-59 0 -105 -32l-14 34q53 37 126 37q150 0 150 -179zM300 153v104q-215 5 -215 -129
q0 -49 25 -74t62 -25q48 0 80.5 27t43.5 68q4 13 4 29z" />
    <glyph glyph-name="acircumflex" unicode="&#xe2;" horiz-adv-x="416" 
d="M186 685h34l88 -136h-45l-59 96h-2l-59 -96h-43zM346 311v-199q0 -70 6 -112h-42l-6 64h-3q-19 -31 -53.5 -52.5t-80.5 -21.5q-61 0 -96 38.5t-35 93.5q0 84 68.5 129.5t195.5 44.5v14q0 141 -111 141q-59 0 -105 -32l-14 34q53 37 126 37q150 0 150 -179zM300 153v104
q-215 5 -215 -129q0 -49 25 -74t62 -25q48 0 80.5 27t43.5 68q4 13 4 29z" />
    <glyph glyph-name="atilde" unicode="&#xe3;" horiz-adv-x="416" 
d="M133 570h-33q-1 38 15 61.5t44 23.5q17 0 55 -21q30 -17 42 -17q25 0 28 40h32q0 -81 -60 -81q-19 0 -53 19q-31 18 -43 18q-22 0 -27 -43zM346 311v-199q0 -70 6 -112h-42l-6 64h-3q-19 -31 -53.5 -52.5t-80.5 -21.5q-61 0 -96 38.5t-35 93.5q0 84 68.5 129.5
t195.5 44.5v14q0 141 -111 141q-59 0 -105 -32l-14 34q53 37 126 37q150 0 150 -179zM300 153v104q-215 5 -215 -129q0 -49 25 -74t62 -25q48 0 80.5 27t43.5 68q4 13 4 29z" />
    <glyph glyph-name="adieresis" unicode="&#xe4;" horiz-adv-x="416" 
d="M128 575h-1q-16 0 -26 11t-10 27q0 15 10.5 26t26.5 11q15 0 25 -11t10 -26t-10 -26.5t-25 -11.5zM289 575h-1q-15 0 -25.5 11.5t-10.5 26.5t10.5 26t26.5 11q15 0 25.5 -11t10.5 -26q0 -16 -10 -27t-26 -11zM346 311v-199q0 -70 6 -112h-42l-6 64h-3
q-19 -31 -53.5 -52.5t-80.5 -21.5q-61 0 -96 38.5t-35 93.5q0 84 68.5 129.5t195.5 44.5v14q0 141 -111 141q-59 0 -105 -32l-14 34q53 37 126 37q150 0 150 -179zM300 153v104q-215 5 -215 -129q0 -49 25 -74t62 -25q48 0 80.5 27t43.5 68q4 13 4 29z" />
    <glyph glyph-name="aring" unicode="&#xe5;" horiz-adv-x="416" 
d="M206 534q-39 0 -65 25t-26 61q0 38 25.5 64t66.5 26q38 0 63.5 -26t25.5 -64q0 -36 -27 -61t-63 -25zM205 564q24 0 39 16.5t15 41.5t-15.5 41.5t-39.5 16.5q-23 0 -37 -17.5t-14 -42.5q0 -22 15 -39t37 -17zM346 311v-199q0 -70 6 -112h-42l-6 64h-3
q-19 -31 -53.5 -52.5t-80.5 -21.5q-61 0 -96 38.5t-35 93.5q0 84 68.5 129.5t195.5 44.5v14q0 141 -111 141q-59 0 -105 -32l-14 34q53 37 126 37q150 0 150 -179zM300 153v104q-215 5 -215 -129q0 -49 25 -74t62 -25q48 0 80.5 27t43.5 68q4 13 4 29z" />
    <glyph glyph-name="ae" unicode="&#xe6;" horiz-adv-x="683" 
d="M645 253h-300q-3 -113 39.5 -168t113.5 -55q68 0 113 26l13 -36q-51 -30 -132 -30q-57 0 -102.5 30t-60.5 83h-2q-17 -53 -60 -83t-99 -30q-62 0 -96.5 37.5t-34.5 91.5q0 83 68.5 128t196.5 44v27q0 19 -4.5 39t-15 42.5t-34.5 37t-58 14.5q-61 0 -106 -33l-15 34
q57 38 125 38q116 0 138 -109h2q19 51 59 80t92 29q47 0 81 -22.5t50 -58t23 -67t7 -60.5q0 -20 -1 -29zM302 163v90q-218 5 -218 -129q0 -45 25.5 -70t63.5 -25q49 -1 81.5 27t43.5 72q4 16 4 35zM346 291h251q3 62 -28 111t-88 49q-61 0 -96.5 -49t-38.5 -111z" />
    <glyph glyph-name="ccedilla" unicode="&#xe7;" horiz-adv-x="398" 
d="M359 55l13 -36q-49 -27 -118 -28l-28 -45q29 -4 48.5 -22.5t19.5 -45.5q0 -37 -26 -56.5t-64 -19.5q-33 0 -60 17l12 33q22 -13 52 -13q45 0 45 35q-1 38 -75 45l41 74q-82 11 -131 76t-49 167q0 110 62.5 182t162.5 72q69 0 108 -26l-16 -39q-45 25 -98 25
q-82 0 -127 -62t-45 -150q0 -94 47 -150.5t123 -56.5q53 0 103 24z" />
    <glyph glyph-name="egrave" unicode="&#xe8;" horiz-adv-x="438" 
d="M120 685h66l87 -136h-35zM399 249h-314q0 -116 46 -167t118 -51q71 0 115 25l12 -36q-48 -29 -133 -29q-95 0 -149.5 67t-54.5 175q0 117 54 187t140 70q49 0 84 -22t52 -57t24 -68t7 -65q0 -20 -1 -29zM87 286h265q1 69 -30 117t-95 48q-63 0 -98 -49.5t-42 -115.5z" />
    <glyph glyph-name="eacute" unicode="&#xe9;" horiz-adv-x="438" 
d="M282 685h66l-117 -136h-35zM399 249h-314q0 -116 46 -167t118 -51q71 0 115 25l12 -36q-48 -29 -133 -29q-95 0 -149.5 67t-54.5 175q0 117 54 187t140 70q49 0 84 -22t52 -57t24 -68t7 -65q0 -20 -1 -29zM87 286h265q1 69 -30 117t-95 48q-63 0 -98 -49.5t-42 -115.5z
" />
    <glyph glyph-name="ecircumflex" unicode="&#xea;" horiz-adv-x="438" 
d="M214 685h34l88 -136h-45l-59 96h-2l-59 -96h-43zM399 249h-314q0 -116 46 -167t118 -51q71 0 115 25l12 -36q-48 -29 -133 -29q-95 0 -149.5 67t-54.5 175q0 117 54 187t140 70q49 0 84 -22t52 -57t24 -68t7 -65q0 -20 -1 -29zM87 286h265q1 69 -30 117t-95 48
q-63 0 -98 -49.5t-42 -115.5z" />
    <glyph glyph-name="edieresis" unicode="&#xeb;" horiz-adv-x="438" 
d="M156 575h-1q-16 0 -26 11t-10 27q0 15 10.5 26t26.5 11q15 0 25 -11t10 -26t-10 -26.5t-25 -11.5zM317 575h-1q-15 0 -25.5 11.5t-10.5 26.5t10.5 26t26.5 11q15 0 25.5 -11t10.5 -26q0 -16 -10 -27t-26 -11zM399 249h-314q0 -116 46 -167t118 -51q71 0 115 25l12 -36
q-48 -29 -133 -29q-95 0 -149.5 67t-54.5 175q0 117 54 187t140 70q49 0 84 -22t52 -57t24 -68t7 -65q0 -20 -1 -29zM87 286h265q1 69 -30 117t-95 48q-63 0 -98 -49.5t-42 -115.5z" />
    <glyph glyph-name="igrave" unicode="&#xec;" horiz-adv-x="195" 
d="M-27 685h66l87 -136h-35zM120 0h-46v480h46v-480z" />
    <glyph glyph-name="iacute" unicode="&#xed;" horiz-adv-x="195" 
d="M146 685h66l-117 -136h-35zM120 0h-46v480h46v-480z" />
    <glyph glyph-name="icircumflex" unicode="&#xee;" horiz-adv-x="195" 
d="M80 685h34l88 -136h-45l-59 96h-2l-59 -96h-43zM120 0h-46v480h46v-480z" />
    <glyph glyph-name="idieresis" unicode="&#xef;" horiz-adv-x="195" 
d="M18 575h-1q-16 0 -26 11t-10 27q0 15 10.5 26t26.5 11q15 0 25 -11t10 -26t-10 -26.5t-25 -11.5zM179 575h-1q-15 0 -25.5 11.5t-10.5 26.5t10.5 26t26.5 11q15 0 25.5 -11t10.5 -26q0 -16 -10 -27t-26 -11zM120 0h-46v480h46v-480z" />
    <glyph glyph-name="eth" unicode="&#xf0;" horiz-adv-x="470" 
d="M231 29h1q68 0 108.5 62.5t40.5 149.5q0 104 -34 155q-41 55 -113 55q-51 0 -86 -36.5t-48.5 -82.5t-13.5 -94q0 -84 40.5 -146.5t104.5 -62.5zM108 521l-14 31l111 57q-33 30 -101 73l24 33q75 -49 116 -85l112 59l16 -32l-101 -52q76 -70 115 -153q42 -89 42 -205
q1 -127 -58 -192t-140 -65q-83 0 -137 66t-54 180q0 118 58 186t136 68q67 0 113 -46l2 3q-39 73 -114 137z" />
    <glyph glyph-name="ntilde" unicode="&#xf1;" horiz-adv-x="487" 
d="M168 570h-33q-1 38 15 61.5t44 23.5q17 0 55 -21q30 -17 42 -17q25 0 28 40h32q0 -81 -60 -81q-19 0 -53 19q-31 18 -43 18q-22 0 -27 -43zM74 0v366q0 40 -4 114h43l3 -78h2q19 39 58 63.5t89 24.5q17 0 34.5 -4t39 -16.5t38 -32t27.5 -55t11 -81.5v-301h-46v293
q0 157 -117 157q-44 0 -79 -29.5t-47 -77.5q-6 -18 -6 -42v-301h-46z" />
    <glyph glyph-name="ograve" unicode="&#xf2;" horiz-adv-x="478" 
d="M129 685h66l87 -136h-35zM242 490q87 0 142 -66.5t55 -180.5q0 -124 -61 -188.5t-143 -64.5q-84 0 -140 66t-56 181q0 120 59 186.5t144 66.5zM240 451q-52 0 -88 -34t-51 -80t-15 -98q0 -84 42 -147t110 -63q69 0 111.5 63.5t42.5 149.5q0 47 -13.5 92t-49.5 81t-89 36z
" />
    <glyph glyph-name="oacute" unicode="&#xf3;" horiz-adv-x="478" 
d="M284 685h66l-117 -136h-35zM242 490q87 0 142 -66.5t55 -180.5q0 -124 -61 -188.5t-143 -64.5q-84 0 -140 66t-56 181q0 120 59 186.5t144 66.5zM240 451q-52 0 -88 -34t-51 -80t-15 -98q0 -84 42 -147t110 -63q69 0 111.5 63.5t42.5 149.5q0 47 -13.5 92t-49.5 81
t-89 36z" />
    <glyph glyph-name="ocircumflex" unicode="&#xf4;" horiz-adv-x="478" 
d="M221 685h34l88 -136h-45l-59 96h-2l-59 -96h-43zM242 490q87 0 142 -66.5t55 -180.5q0 -124 -61 -188.5t-143 -64.5q-84 0 -140 66t-56 181q0 120 59 186.5t144 66.5zM240 451q-52 0 -88 -34t-51 -80t-15 -98q0 -84 42 -147t110 -63q69 0 111.5 63.5t42.5 149.5
q0 47 -13.5 92t-49.5 81t-89 36z" />
    <glyph glyph-name="otilde" unicode="&#xf5;" horiz-adv-x="478" 
d="M164 570h-33q-1 38 15 61.5t44 23.5q16 0 55 -21q30 -17 42 -17q25 0 28 40h32q0 -81 -60 -81q-19 0 -53 19q-31 18 -43 18q-22 0 -27 -43zM242 490q87 0 142 -66.5t55 -180.5q0 -124 -61 -188.5t-143 -64.5q-84 0 -140 66t-56 181q0 120 59 186.5t144 66.5zM240 451
q-52 0 -88 -34t-51 -80t-15 -98q0 -84 42 -147t110 -63q69 0 111.5 63.5t42.5 149.5q0 47 -13.5 92t-49.5 81t-89 36z" />
    <glyph glyph-name="odieresis" unicode="&#xf6;" horiz-adv-x="478" 
d="M159 575h-1q-16 0 -26 11t-10 27q0 15 10.5 26t26.5 11q15 0 25 -11t10 -26t-10 -26.5t-25 -11.5zM320 575h-1q-15 0 -25.5 11.5t-10.5 26.5t10.5 26t26.5 11q15 0 25.5 -11t10.5 -26q0 -16 -10 -27t-26 -11zM242 490q87 0 142 -66.5t55 -180.5q0 -124 -61 -188.5
t-143 -64.5q-84 0 -140 66t-56 181q0 120 59 186.5t144 66.5zM240 451q-52 0 -88 -34t-51 -80t-15 -98q0 -84 42 -147t110 -63q69 0 111.5 63.5t42.5 149.5q0 47 -13.5 92t-49.5 81t-89 36z" />
    <glyph glyph-name="divide" unicode="&#xf7;" horiz-adv-x="596" 
d="M298 401h-1q-17 0 -28 12.5t-10 29.5q0 18 11 30.5t29 12.5t28.5 -12.5t10.5 -30.5t-11 -30t-29 -12zM556 247h-516v40h516v-40zM298 48h-1q-17 0 -28 12.5t-10 29.5q0 19 11 31t29 12t28.5 -12t10.5 -31q0 -18 -11 -30t-29 -12z" />
    <glyph glyph-name="oslash" unicode="&#xf8;" horiz-adv-x="478" 
d="M241 490h1q61 0 110 -37l34 53l31 -19l-38 -61q60 -69 60 -182q0 -125 -60 -189.5t-140 -64.5q-65 0 -112 37l-35 -54l-28 22l36 59q-61 69 -61 183q0 120 59 186.5t143 66.5zM126 93l203 322q-33 36 -90 36q-77 0 -115 -65t-38 -147t38 -145zM353 384l-203 -321
q35 -34 86 -34q72 0 114 63t42 150q0 81 -37 142h-2z" />
    <glyph glyph-name="ugrave" unicode="&#xf9;" horiz-adv-x="481" 
d="M125 685h66l87 -136h-35zM407 480v-362q0 -48 4 -118h-42l-4 75h-2q-18 -34 -55.5 -59.5t-89.5 -25.5q-60 0 -103.5 46t-43.5 155v289h46v-279q0 -171 112 -171q46 0 79 28.5t46 65.5q7 26 7 50v306h46z" />
    <glyph glyph-name="uacute" unicode="&#xfa;" horiz-adv-x="481" 
d="M299 685h66l-117 -136h-35zM407 480v-362q0 -48 4 -118h-42l-4 75h-2q-18 -34 -55.5 -59.5t-89.5 -25.5q-60 0 -103.5 46t-43.5 155v289h46v-279q0 -171 112 -171q46 0 79 28.5t46 65.5q7 26 7 50v306h46z" />
    <glyph glyph-name="ucircumflex" unicode="&#xfb;" horiz-adv-x="481" 
d="M222 685h34l88 -136h-45l-59 96h-2l-59 -96h-43zM407 480v-362q0 -48 4 -118h-42l-4 75h-2q-18 -34 -55.5 -59.5t-89.5 -25.5q-60 0 -103.5 46t-43.5 155v289h46v-279q0 -171 112 -171q46 0 79 28.5t46 65.5q7 26 7 50v306h46z" />
    <glyph glyph-name="udieresis" unicode="&#xfc;" horiz-adv-x="481" 
d="M163 575h-1q-16 0 -26 11t-10 27q0 15 10.5 26t26.5 11q15 0 25 -11t10 -26t-10 -26.5t-25 -11.5zM324 575h-1q-15 0 -25.5 11.5t-10.5 26.5t10.5 26t26.5 11q15 0 25.5 -11t10.5 -26q0 -16 -10 -27t-26 -11zM407 480v-362q0 -48 4 -118h-42l-4 75h-2
q-18 -34 -55.5 -59.5t-89.5 -25.5q-60 0 -103.5 46t-43.5 155v289h46v-279q0 -171 112 -171q46 0 79 28.5t46 65.5q7 26 7 50v306h46z" />
    <glyph glyph-name="yacute" unicode="&#xfd;" horiz-adv-x="403" 
d="M258 685h66l-117 -136h-35zM13 480h49l110 -307q17 -50 32 -106h2l33 108l103 305h49l-121 -331q-45 -129 -76.5 -198.5t-74.5 -112.5q-41 -40 -80 -56l-18 39q46 21 80 59q45 51 70 113q6 18 6 23t-5 20z" />
    <glyph glyph-name="thorn" unicode="&#xfe;" horiz-adv-x="497" 
d="M74 664h46v-262h2q49 88 153 88q80 0 131.5 -66t51.5 -178q0 -125 -57.5 -190.5t-139.5 -65.5q-94 0 -139 79h-2v-265h-46v860zM120 283v-101q0 -25 5 -40q15 -56 53 -84.5t85 -28.5q69 0 108.5 59.5t39.5 156.5q0 86 -39.5 146t-108.5 60q-46 0 -84.5 -33.5t-51.5 -85.5
q-7 -26 -7 -49z" />
    <glyph glyph-name="ydieresis" unicode="&#xff;" horiz-adv-x="403" 
d="M131 575h-1q-16 0 -26 11t-10 27q0 15 10.5 26t26.5 11q15 0 25 -11t10 -26t-10 -26.5t-25 -11.5zM292 575h-1q-15 0 -25.5 11.5t-10.5 26.5t10.5 26t26.5 11q15 0 25.5 -11t10.5 -26q0 -16 -10 -27t-26 -11zM13 480h49l110 -307q17 -50 32 -106h2l33 108l103 305h49
l-121 -331q-45 -129 -76.5 -198.5t-74.5 -112.5q-41 -40 -80 -56l-18 39q46 21 80 59q45 51 70 113q6 18 6 23t-5 20z" />
    <glyph glyph-name="Amacron" unicode="&#x100;" horiz-adv-x="536" 
d="M388 235h-237l-74 -235h-47l218 674h45l218 -674h-47zM164 274h211l-70 214q-19 58 -34 130h-3q-11 -53 -33 -128zM159 772h219v-39h-219v39z" />
    <glyph glyph-name="amacron" unicode="&#x101;" horiz-adv-x="416" 
d="M107 625h203v-39h-203v39zM346 311v-199q0 -70 6 -112h-42l-6 64h-3q-19 -31 -53.5 -52.5t-80.5 -21.5q-61 0 -96 38.5t-35 93.5q0 84 68.5 129.5t195.5 44.5v14q0 141 -111 141q-59 0 -105 -32l-14 34q53 37 126 37q150 0 150 -179zM300 153v104q-215 5 -215 -129
q0 -49 25 -74t62 -25q48 0 80.5 27t43.5 68q4 13 4 29z" />
    <glyph glyph-name="Abreve" unicode="&#x102;" horiz-adv-x="536" 
d="M388 235h-237l-74 -235h-47l218 674h45l218 -674h-47zM164 274h211l-70 214q-19 58 -34 130h-3q-11 -53 -33 -128zM159 803h33q13 -48 76 -48q66 0 76 48h33q-1 -40 -29 -65t-81 -25q-52 0 -79.5 24.5t-28.5 65.5z" />
    <glyph glyph-name="abreve" unicode="&#x103;" horiz-adv-x="416" 
d="M98 672h34q4 -31 24.5 -51.5t51.5 -20.5q34 0 54 21t22 51h34q1 -50 -30 -80.5t-80 -30.5q-55 0 -82.5 33t-27.5 78zM346 311v-199q0 -70 6 -112h-42l-6 64h-3q-19 -31 -53.5 -52.5t-80.5 -21.5q-61 0 -96 38.5t-35 93.5q0 84 68.5 129.5t195.5 44.5v14q0 141 -111 141
q-59 0 -105 -32l-14 34q53 37 126 37q150 0 150 -179zM300 153v104q-215 5 -215 -129q0 -49 25 -74t62 -25q48 0 80.5 27t43.5 68q4 13 4 29z" />
    <glyph glyph-name="Aogonek" unicode="&#x104;" horiz-adv-x="536" 
d="M293 674l218 -674l-9 -2q-65 -61 -65 -109q0 -24 13 -36.5t33 -12.5q22 0 46 11l9 -29q-25 -19 -66 -19q-35 0 -57 20t-22 55q0 54 69 128l-74 229h-237l-74 -235h-47l218 674h45zM164 274h211l-70 214q-19 58 -34 130h-3q-11 -53 -33 -128z" />
    <glyph glyph-name="aogonek" unicode="&#x105;" horiz-adv-x="416" 
d="M346 311v-199q0 -69 8 -112h-6q-51 -62 -51 -113q0 -24 13.5 -36.5t33.5 -12.5q26 0 46 10l8 -29q-25 -19 -66 -19q-35 0 -57 20t-22 55q0 49 56 128l-5 61h-3q-19 -31 -53.5 -52.5t-80.5 -21.5q-61 0 -96 38.5t-35 93.5q0 84 68.5 129.5t195.5 44.5v14q0 141 -111 141
q-59 0 -105 -32l-14 34q53 37 126 37q150 0 150 -179zM300 153v104q-215 5 -215 -129q0 -49 25 -74t62 -25q48 0 80.5 27t43.5 68q4 13 4 29z" />
    <glyph glyph-name="Cacute" unicode="&#x106;" horiz-adv-x="507" 
d="M465 58l13 -38q-58 -29 -155 -29q-57 0 -106.5 19.5t-90.5 59t-65 107t-24 155.5q0 163 84.5 257t220.5 94q86 0 133 -25l-15 -40q-52 25 -120 25q-115 0 -185 -80t-70 -229q0 -146 67.5 -224.5t183.5 -78.5q75 0 129 27zM379 822h71l-129 -110h-41z" />
    <glyph glyph-name="cacute" unicode="&#x107;" horiz-adv-x="399" 
d="M287 685h66l-117 -136h-35zM358 55l12 -36q-51 -28 -121 -28q-94 0 -152 67t-58 178q0 110 62.5 182t162.5 72q69 0 108 -26l-16 -39q-45 25 -98 25q-82 0 -127 -62t-45 -150q0 -94 47 -150.5t123 -56.5q50 0 102 24z" />
    <glyph glyph-name="Ccircumflex" unicode="&#x108;" horiz-adv-x="507" 
d="M465 58l13 -38q-58 -29 -155 -29q-57 0 -106.5 19.5t-90.5 59t-65 107t-24 155.5q0 163 84.5 257t220.5 94q86 0 133 -25l-15 -40q-52 25 -120 25q-115 0 -185 -80t-70 -229q0 -146 67.5 -224.5t183.5 -78.5q75 0 129 27zM286 816h40l101 -103h-52l-68 69h-2l-68 -69h-50
z" />
    <glyph glyph-name="ccircumflex" unicode="&#x109;" horiz-adv-x="399" 
d="M218 685h34l88 -136h-45l-59 96h-2l-59 -96h-43zM358 55l12 -36q-51 -28 -121 -28q-94 0 -152 67t-58 178q0 110 62.5 182t162.5 72q69 0 108 -26l-16 -39q-45 25 -98 25q-82 0 -127 -62t-45 -150q0 -94 47 -150.5t123 -56.5q50 0 102 24z" />
    <glyph glyph-name="Cdotaccent" unicode="&#x10a;" horiz-adv-x="507" 
d="M465 58l13 -38q-58 -29 -155 -29q-57 0 -106.5 19.5t-90.5 59t-65 107t-24 155.5q0 163 84.5 257t220.5 94q86 0 133 -25l-15 -40q-52 25 -120 25q-115 0 -185 -80t-70 -229q0 -146 67.5 -224.5t183.5 -78.5q75 0 129 27zM310 724h-1q-15 0 -25.5 11t-10.5 26t11 26
t26 11t25.5 -11t10.5 -26t-10.5 -26t-25.5 -11z" />
    <glyph glyph-name="cdotaccent" unicode="&#x10b;" horiz-adv-x="399" 
d="M235 575h-1q-15 0 -25.5 11.5t-10.5 26.5t11 26.5t26 11.5q16 0 26 -11t10 -27t-10 -27t-26 -11zM358 55l12 -36q-51 -28 -121 -28q-94 0 -152 67t-58 178q0 110 62.5 182t162.5 72q69 0 108 -26l-16 -39q-45 25 -98 25q-82 0 -127 -62t-45 -150q0 -94 47 -150.5
t123 -56.5q50 0 102 24z" />
    <glyph glyph-name="Ccaron" unicode="&#x10c;" horiz-adv-x="507" 
d="M465 58l13 -38q-58 -29 -155 -29q-57 0 -106.5 19.5t-90.5 59t-65 107t-24 155.5q0 163 84.5 257t220.5 94q86 0 133 -25l-15 -40q-52 25 -120 25q-115 0 -185 -80t-70 -229q0 -146 67.5 -224.5t183.5 -78.5q75 0 129 27zM333 713h-40l-101 103h52l69 -70h2l68 70h50z
" />
    <glyph glyph-name="ccaron" unicode="&#x10d;" horiz-adv-x="399" 
d="M253 549h-36l-88 136h45l60 -97h2l61 97h42zM358 55l12 -36q-51 -28 -121 -28q-94 0 -152 67t-58 178q0 110 62.5 182t162.5 72q69 0 108 -26l-16 -39q-45 25 -98 25q-82 0 -127 -62t-45 -150q0 -94 47 -150.5t123 -56.5q50 0 102 24z" />
    <glyph glyph-name="Dcaron" unicode="&#x10e;" horiz-adv-x="578" 
d="M76 1v664q77 14 146 14q156 0 232 -78q87 -85 87 -246q0 -169 -84 -264q-84 -96 -255 -96q-78 0 -126 6zM122 631v-592q31 -4 86 -4q138 0 211.5 79.5t73.5 236.5q1 137 -67 212.5t-206 75.5q-50 0 -98 -8zM284 712h-40l-101 103h52l69 -70h2l68 70h50z" />
    <glyph glyph-name="dcaron" unicode="&#x10f;" horiz-adv-x="501" 
d="M371 705h47v-598q0 -49 4 -107h-42l-3 83h-3q-17 -40 -56 -66.5t-94 -26.5q-80 0 -132.5 66t-52.5 177q0 118 56 187.5t137 69.5q49 0 84.5 -21.5t52.5 -56.5h2v293zM371 187v106q0 21 -3 41q-10 50 -46.5 83.5t-85.5 33.5q-70 0 -110 -60.5t-40 -153.5q0 -88 37.5 -148
t108.5 -60q46 0 83 30t52 90q4 16 4 38zM485 531l-21 20q37 39 37 84q0 39 -37 65l43 11q36 -23 36 -71q0 -10 -1.5 -19.5t-4.5 -18t-6 -15.5t-8 -14l-8 -11.5t-8.5 -10l-8.5 -8.5t-7.5 -7t-5.5 -5z" />
    <glyph glyph-name="Dcroat" unicode="&#x110;" horiz-adv-x="584" 
d="M-3 326v38h84v302q70 14 147 14q156 0 232 -78q86 -84 86 -249q0 -170 -83 -264q-84 -95 -256 -95q-78 0 -126 6v326h-84zM310 364v-38h-182v-288q23 -4 86 -4q137 0 211 80t74 239q1 136 -67 212t-206 76q-55 0 -98 -9v-268h182z" />
    <glyph glyph-name="dcroat" unicode="&#x111;" horiz-adv-x="491" 
d="M488 556h-70v-449q0 -49 4 -107h-42l-3 83h-3q-17 -40 -56 -66.5t-94 -26.5q-80 0 -132.5 66t-52.5 177q0 118 56 187.5t137 69.5q49 0 84.5 -21.5t52.5 -56.5h2v144h-185v38h185v111h47v-111h70v-38zM371 187v106q0 21 -3 41q-10 50 -46.5 83.5t-85.5 33.5
q-70 0 -110 -60.5t-40 -153.5q0 -88 37.5 -148t108.5 -60q46 0 83 30t52 90q4 16 4 38z" />
    <glyph glyph-name="Emacron" unicode="&#x112;" horiz-adv-x="425" 
d="M364 375v-40h-242v-295h272v-40h-318v674h303v-40h-257v-259h242zM123 772h219v-39h-219v39z" />
    <glyph glyph-name="emacron" unicode="&#x113;" horiz-adv-x="438" 
d="M121 625h203v-39h-203v39zM399 249h-314q0 -116 46 -167t118 -51q71 0 115 25l12 -36q-48 -29 -133 -29q-95 0 -149.5 67t-54.5 175q0 117 54 187t140 70q49 0 84 -22t52 -57t24 -68t7 -65q0 -20 -1 -29zM87 286h265q1 69 -30 117t-95 48q-63 0 -98 -49.5t-42 -115.5z
" />
    <glyph glyph-name="Ebreve" unicode="&#x114;" horiz-adv-x="425" 
d="M364 375v-40h-242v-295h272v-40h-318v674h303v-40h-257v-259h242zM114 811h33q13 -48 76 -48q66 0 76 48h33q-1 -40 -29 -65t-81 -25q-52 0 -79.5 24.5t-28.5 65.5z" />
    <glyph glyph-name="ebreve" unicode="&#x115;" horiz-adv-x="438" 
d="M112 672h34q4 -31 24.5 -51.5t51.5 -20.5q34 0 54 21t22 51h34q1 -50 -30 -80.5t-80 -30.5q-55 0 -82.5 33t-27.5 78zM399 249h-314q0 -116 46 -167t118 -51q71 0 115 25l12 -36q-48 -29 -133 -29q-95 0 -149.5 67t-54.5 175q0 117 54 187t140 70q49 0 84 -22t52 -57
t24 -68t7 -65q0 -20 -1 -29zM87 286h265q1 69 -30 117t-95 48q-63 0 -98 -49.5t-42 -115.5z" />
    <glyph glyph-name="Edotaccent" unicode="&#x116;" horiz-adv-x="425" 
d="M364 375v-40h-242v-295h272v-40h-318v674h303v-40h-257v-259h242zM224 729h-1q-15 0 -25.5 11t-10.5 26t11 26t26 11t25.5 -11t10.5 -26t-10.5 -26t-25.5 -11z" />
    <glyph glyph-name="edotaccent" unicode="&#x117;" horiz-adv-x="438" 
d="M223 575h-1q-15 0 -25.5 11.5t-10.5 26.5t11 26.5t26 11.5q16 0 26 -11t10 -27t-10 -27t-26 -11zM399 249h-314q0 -116 46 -167t118 -51q71 0 115 25l12 -36q-48 -29 -133 -29q-95 0 -149.5 67t-54.5 175q0 117 54 187t140 70q49 0 84 -22t52 -57t24 -68t7 -65
q0 -20 -1 -29zM87 286h265q1 69 -30 117t-95 48q-63 0 -98 -49.5t-42 -115.5z" />
    <glyph glyph-name="Eogonek" unicode="&#x118;" horiz-adv-x="425" 
d="M388 -151l8 -31q-26 -16 -63 -16q-38 0 -60 19t-22 54q0 37 27 71t61 54h-263v674h303v-40h-257v-259h242v-40h-242v-295h272v-40q-3 0 -9 -2q-38 -24 -64 -54.5t-26 -58.5q0 -22 13.5 -33.5t34.5 -11.5q24 0 45 9z" />
    <glyph glyph-name="eogonek" unicode="&#x119;" horiz-adv-x="438" 
d="M327 -148l9 -30q-26 -18 -65 -18q-35 0 -57 19.5t-22 53.5q0 33 23.5 64.5t53.5 49.5v1q-8 -1 -26 -1q-95 0 -149.5 67t-54.5 175q0 117 54 187t140 70q49 0 84 -22t52 -57t24 -68t7 -65q0 -21 -1 -29h-314q0 -116 46 -167t118 -51q71 0 115 25l12 -36q-16 -10 -39 -16
q-36 -15 -68.5 -49.5t-32.5 -67.5q0 -23 12.5 -34.5t31.5 -11.5q27 0 47 11zM87 286h265q1 69 -30 117t-95 48q-63 0 -98 -49.5t-42 -115.5z" />
    <glyph glyph-name="Ecaron" unicode="&#x11a;" horiz-adv-x="425" 
d="M364 375v-40h-242v-295h272v-40h-318v674h303v-40h-257v-259h242zM248 710h-40l-101 103h52l69 -70h2l68 70h50z" />
    <glyph glyph-name="ecaron" unicode="&#x11b;" horiz-adv-x="438" 
d="M240 549h-36l-88 136h45l60 -97h2l61 97h42zM399 249h-314q0 -116 46 -167t118 -51q71 0 115 25l12 -36q-48 -29 -133 -29q-95 0 -149.5 67t-54.5 175q0 117 54 187t140 70q49 0 84 -22t52 -57t24 -68t7 -65q0 -20 -1 -29zM87 286h265q1 69 -30 117t-95 48
q-63 0 -98 -49.5t-42 -115.5z" />
    <glyph glyph-name="Gcircumflex" unicode="&#x11c;" horiz-adv-x="561" 
d="M506 334v-308q-78 -33 -170 -33q-130 0 -211 82q-88 88 -88 257q0 159 86.5 254t229.5 95q81 0 137 -27l-15 -39q-54 25 -124 25q-120 0 -193 -79t-73 -223q0 -149 69.5 -226.5t188.5 -77.5q80 0 116 19v243h-140v38h187zM300 815h40l101 -103h-52l-68 69h-2l-68 -69h-50
z" />
    <glyph glyph-name="gcircumflex" unicode="&#x11d;" horiz-adv-x="491" 
d="M225 688h34l88 -136h-45l-59 96h-2l-59 -96h-43zM418 349v-280q0 -91 -14.5 -141t-44.5 -80q-54 -54 -146 -54q-87 0 -136 36l16 37q53 -34 126 -34q152 0 152 186v65h-2q-18 -37 -55.5 -60.5t-89.5 -23.5q-80 0 -132.5 66.5t-52.5 170.5q0 122 59 187.5t136 65.5
q99 0 140 -84h2l2 74h44q-4 -66 -4 -131zM371 192v111q0 27 -5 43q-13 44 -46.5 74.5t-83.5 30.5q-68 0 -109 -57.5t-41 -151.5q0 -91 39.5 -147t109.5 -56q43 0 78 26t51 77q7 24 7 50z" />
    <glyph glyph-name="Gbreve" unicode="&#x11e;" horiz-adv-x="561" 
d="M506 334v-308q-78 -33 -170 -33q-130 0 -211 82q-88 88 -88 257q0 159 86.5 254t229.5 95q81 0 137 -27l-15 -39q-54 25 -124 25q-120 0 -193 -79t-73 -223q0 -149 69.5 -226.5t188.5 -77.5q80 0 116 19v243h-140v38h187zM201 811h33q13 -48 76 -48q66 0 76 48h33
q-1 -40 -29 -65t-81 -25q-52 0 -79.5 24.5t-28.5 65.5z" />
    <glyph glyph-name="gbreve" unicode="&#x11f;" horiz-adv-x="491" 
d="M125 672h34q4 -31 24.5 -51.5t51.5 -20.5q34 0 54 21t22 51h34q1 -50 -30 -80.5t-80 -30.5q-55 0 -82.5 33t-27.5 78zM418 349v-280q0 -91 -14.5 -141t-44.5 -80q-54 -54 -146 -54q-87 0 -136 36l16 37q53 -34 126 -34q152 0 152 186v65h-2q-18 -37 -55.5 -60.5
t-89.5 -23.5q-80 0 -132.5 66.5t-52.5 170.5q0 122 59 187.5t136 65.5q99 0 140 -84h2l2 74h44q-4 -66 -4 -131zM371 192v111q0 27 -5 43q-13 44 -46.5 74.5t-83.5 30.5q-68 0 -109 -57.5t-41 -151.5q0 -91 39.5 -147t109.5 -56q43 0 78 26t51 77q7 24 7 50z" />
    <glyph glyph-name="Gdotaccent" unicode="&#x120;" horiz-adv-x="561" 
d="M506 334v-308q-78 -33 -170 -33q-130 0 -211 82q-88 88 -88 257q0 159 86.5 254t229.5 95q81 0 137 -27l-15 -39q-54 25 -124 25q-120 0 -193 -79t-73 -223q0 -149 69.5 -226.5t188.5 -77.5q80 0 116 19v243h-140v38h187zM321 724h-1q-15 0 -25.5 11t-10.5 26t11 26
t26 11t25.5 -11t10.5 -26t-10.5 -26t-25.5 -11z" />
    <glyph glyph-name="gdotaccent" unicode="&#x121;" horiz-adv-x="491" 
d="M245 578h-1q-15 0 -25.5 11.5t-10.5 26.5t11 26.5t26 11.5q16 0 26 -11t10 -27t-10 -27t-26 -11zM418 349v-280q0 -91 -14.5 -141t-44.5 -80q-54 -54 -146 -54q-87 0 -136 36l16 37q53 -34 126 -34q152 0 152 186v65h-2q-18 -37 -55.5 -60.5t-89.5 -23.5
q-80 0 -132.5 66.5t-52.5 170.5q0 122 59 187.5t136 65.5q99 0 140 -84h2l2 74h44q-4 -66 -4 -131zM371 192v111q0 27 -5 43q-13 44 -46.5 74.5t-83.5 30.5q-68 0 -109 -57.5t-41 -151.5q0 -91 39.5 -147t109.5 -56q43 0 78 26t51 77q7 24 7 50z" />
    <glyph glyph-name="Gcommaaccent" unicode="&#x122;" horiz-adv-x="561" 
d="M506 334v-308q-78 -33 -170 -33q-130 0 -211 82q-88 88 -88 257q0 159 86.5 254t229.5 95q81 0 137 -27l-15 -39q-54 25 -124 25q-120 0 -193 -79t-73 -223q0 -149 69.5 -226.5t188.5 -77.5q80 0 116 19v243h-140v38h187zM274 -209l-13 26q77 14 77 68q0 35 -37 61l41 12
q38 -24 38 -70q0 -44 -32 -68t-74 -29z" />
    <glyph glyph-name="gcommaaccent" unicode="&#x123;" horiz-adv-x="491" 
d="M418 349v-280q0 -91 -14.5 -141t-44.5 -80q-54 -54 -146 -54q-87 0 -136 36l16 37q53 -34 126 -34q152 0 152 186v65h-2q-18 -37 -55.5 -60.5t-89.5 -23.5q-80 0 -132.5 66.5t-52.5 170.5q0 122 59 187.5t136 65.5q99 0 140 -84h2l2 74h44q-4 -66 -4 -131zM371 192v111
q0 27 -5 43q-13 44 -46.5 74.5t-83.5 30.5q-68 0 -109 -57.5t-41 -151.5q0 -91 39.5 -147t109.5 -56q43 0 78 26t51 77q7 24 7 50zM295 696l14 -25q-77 -14 -77 -69q0 -35 37 -61l-41 -11q-38 23 -38 69q0 44 32 68t73 29z" />
    <glyph glyph-name="Hcircumflex" unicode="&#x124;" horiz-adv-x="570" 
d="M76 674h46v-298h326v298h46v-674h-46v337h-326v-337h-46v674zM266 813h40l101 -103h-52l-68 69h-2l-68 -69h-50z" />
    <glyph glyph-name="hcircumflex" unicode="&#x125;" horiz-adv-x="487" 
d="M74 0v705h46v-301h2q21 39 58 62q40 24 87 24q16 0 33 -3.5t38.5 -16t37.5 -31.5t27.5 -54.5t11.5 -81.5v-303h-46v295q0 68 -27 111.5t-88 43.5q-45 0 -79.5 -29.5t-48.5 -75.5q-6 -17 -6 -44v-301h-46zM80 826h40l101 -103h-52l-68 69h-2l-68 -69h-50z" />
    <glyph glyph-name="Hbar" unicode="&#x126;" horiz-adv-x="570" 
d="M547 486h-53v-486h-46v330h-326v-330h-46v486h-52v37h52v151h46v-151h326v151h46v-151h53v-37zM448 370v116h-326v-116h326z" />
    <glyph glyph-name="hbar" unicode="&#x127;" horiz-adv-x="487" 
d="M415 0h-46v295q0 68 -27 111.5t-88 43.5q-45 0 -79.5 -29.5t-48.5 -75.5q-6 -17 -6 -44v-301h-46v556h-71v38h71v111h46v-111h181v-38h-181v-152h2q21 39 58 62q40 24 87 24q16 0 33 -3.5t38.5 -16t37.5 -31.5t27.5 -54.5t11.5 -81.5v-303z" />
    <glyph glyph-name="Itilde" unicode="&#x128;" horiz-adv-x="198" 
d="M76 674h46v-674h-46v674zM22 716h-32q-1 36 15.5 60.5t44.5 24.5q17 0 53 -20q34 -17 47 -17t20 7.5t8 29.5h32q0 -79 -60 -79q-22 0 -55 19q-34 19 -46 19q-22 0 -27 -44z" />
    <glyph glyph-name="itilde" unicode="&#x129;" horiz-adv-x="195" 
d="M23 570h-33q-1 38 15 61.5t44 23.5q17 0 55 -21q30 -17 42 -17q25 0 28 40h32q0 -81 -60 -81q-19 0 -53 19q-31 18 -43 18q-22 0 -27 -43zM120 0h-46v480h46v-480z" />
    <glyph glyph-name="Imacron" unicode="&#x12a;" horiz-adv-x="198" 
d="M76 674h46v-674h-46v674zM-9 772h219v-39h-219v39z" />
    <glyph glyph-name="imacron" unicode="&#x12b;" horiz-adv-x="195" 
d="M-3 625h203v-39h-203v39zM120 0h-46v480h46v-480z" />
    <glyph glyph-name="Ibreve" unicode="&#x12c;" horiz-adv-x="198" 
d="M76 674h46v-674h-46v674zM-10 808h33q13 -48 76 -48q66 0 76 48h33q-1 -40 -29 -65t-81 -25q-52 0 -79.5 24.5t-28.5 65.5z" />
    <glyph glyph-name="ibreve" unicode="&#x12d;" horiz-adv-x="195" 
d="M-9 672h34q4 -31 24.5 -51.5t51.5 -20.5q34 0 54 21t22 51h34q1 -50 -30 -80.5t-80 -30.5q-55 0 -82.5 33t-27.5 78zM120 0h-46v480h46v-480z" />
    <glyph glyph-name="Iogonek" unicode="&#x12e;" horiz-adv-x="198" 
d="M122 674v-674h-6q-52 -66 -52 -116q0 -24 13 -36.5t33 -12.5q28 0 46 10l9 -30q-26 -18 -67 -18q-35 0 -56.5 20t-21.5 55q0 49 56 128v674h46z" />
    <glyph glyph-name="iogonek" unicode="&#x12f;" horiz-adv-x="195" 
d="M97 578h-1q-16 0 -25.5 11.5t-9.5 28.5t10 28.5t26 11.5q17 0 27 -11.5t10 -28.5q0 -18 -10 -29t-27 -11zM120 480v-480h-5q-53 -68 -53 -116q0 -24 13.5 -36.5t33.5 -12.5q26 0 46 10l9 -30q-27 -18 -67 -18q-35 0 -57 20t-22 55q0 49 56 128v480h46z" />
    <glyph glyph-name="Idotaccent" unicode="&#x130;" horiz-adv-x="198" 
d="M76 674h46v-674h-46v674zM100 729h-1q-15 0 -25.5 11t-10.5 26t11 26t26 11t25.5 -11t10.5 -26t-10.5 -26t-25.5 -11z" />
    <glyph glyph-name="dotlessi" unicode="&#x131;" horiz-adv-x="195" 
d="M120 0h-46v480h46v-480z" />
    <glyph glyph-name="IJ" unicode="&#x132;" horiz-adv-x="513" 
d="M76 674h46v-674h-46v674zM398 206v468h46v-476q0 -208 -168 -208q-38 0 -70 12l9 39q26 -11 59 -11q64 0 94 38t30 138z" />
    <glyph glyph-name="ij" unicode="&#x133;" horiz-adv-x="394" 
d="M120 0h-46v480h46v-480zM97 653q17 0 27 -11t10 -29q0 -17 -10.5 -28.5t-27.5 -11.5q-15 0 -25 11.5t-10 28.5t10 28.5t26 11.5zM161 -206l-7 37q63 7 90 42q18 23 25 61.5t7 125.5v420h46v-448q0 -71 -10 -113.5t-37 -74.5q-22 -24 -55 -36.5t-59 -13.5zM300 653
q16 0 26 -11.5t10 -28.5t-10 -28.5t-28 -11.5q-15 0 -25 11.5t-10 28.5t10.5 28.5t26.5 11.5z" />
    <glyph glyph-name="Jcircumflex" unicode="&#x134;" horiz-adv-x="315" 
d="M200 206v468h46v-476q0 -208 -168 -208q-38 0 -70 12l9 39q26 -11 59 -11q64 0 94 38t30 138zM197 813h40l101 -103h-52l-68 69h-2l-68 -69h-50z" />
    <glyph glyph-name="jcircumflex" unicode="&#x135;" horiz-adv-x="200" 
d="M-34 -206l-7 37q63 7 90 42q18 23 25 61.5t7 125.5v420h46v-448q0 -71 -10 -113.5t-37 -74.5q-22 -24 -55 -36.5t-59 -13.5zM82 675h34l88 -136h-45l-59 96h-2l-59 -96h-43z" />
    <glyph glyph-name="Kcommaaccent" unicode="&#x136;" horiz-adv-x="460" 
d="M76 0v674h46v-338h3q10 15 54 72l212 266h56l-232 -286l250 -388h-54l-228 355l-61 -75v-280h-46zM185 -204l-13 26q77 14 77 68q0 35 -37 61l41 12q38 -24 38 -70q0 -44 -32 -68t-74 -29z" />
    <glyph glyph-name="kcommaaccent" unicode="&#x137;" horiz-adv-x="392" 
d="M120 705v-456h2q19 26 41 51l153 180h55l-176 -200l199 -280h-55l-175 250l-44 -50v-200h-46v705h46zM150 -209l-13 26q77 14 77 68q0 35 -37 61l41 12q38 -24 38 -70q0 -44 -32 -68t-74 -29z" />
    <glyph glyph-name="kgreenlandic" unicode="&#x138;" horiz-adv-x="392" 
d="M120 480v-231h2q19 26 41 51l153 180h55l-176 -200l199 -280h-55l-175 250l-44 -50v-200h-46v480h46z" />
    <glyph glyph-name="Lacute" unicode="&#x139;" horiz-adv-x="410" 
d="M76 0v674h46v-635h270v-39h-316zM180 820h71l-129 -110h-41z" />
    <glyph glyph-name="lacute" unicode="&#x13a;" horiz-adv-x="199" 
d="M74 0v705h46v-705h-46zM157 843h71l-129 -110h-41z" />
    <glyph glyph-name="Lcommaaccent" unicode="&#x13b;" horiz-adv-x="410" 
d="M76 0v674h46v-635h270v-39h-316zM167 -209l-13 26q77 14 77 68q0 35 -37 61l41 12q38 -24 38 -70q0 -44 -32 -68t-74 -29z" />
    <glyph glyph-name="lcommaaccent" unicode="&#x13c;" horiz-adv-x="199" 
d="M74 0v705h46v-705h-46zM46 -209l-13 26q77 14 77 68q0 35 -37 61l41 12q38 -24 38 -70q0 -44 -32 -68t-74 -29z" />
    <glyph glyph-name="Lcaron" unicode="&#x13d;" horiz-adv-x="410" 
d="M76 0v674h46v-635h270v-39h-316zM220 514l-13 26q77 14 77 68q0 35 -37 61l41 12q38 -24 38 -70q0 -44 -32 -68t-74 -29z" />
    <glyph glyph-name="lcaron" unicode="&#x13e;" horiz-adv-x="205" 
d="M74 0v705h46v-705h-46zM185 531l-21 20q37 37 37 84q0 38 -36 65l42 11q36 -22 36 -71q0 -59 -58 -109z" />
    <glyph glyph-name="Ldot" unicode="&#x13f;" horiz-adv-x="410" 
d="M76 0v674h46v-635h270v-39h-316zM283 327h-1q-15 0 -25.5 11t-10.5 26t11 26t26 11t25.5 -11t10.5 -26t-10.5 -26t-25.5 -11z" />
    <glyph glyph-name="ldot" unicode="&#x140;" horiz-adv-x="209" 
d="M74 0v705h46v-705h-46zM202 348h-1q-15 0 -25 11t-10 26t10.5 26t25.5 11t25 -10.5t10 -26.5q0 -15 -10 -26t-25 -11z" />
    <glyph glyph-name="Lslash" unicode="&#x141;" horiz-adv-x="415" 
d="M397 0h-317v284l-84 -70v44l84 71v345h47v-308l131 109v-46l-131 -108v-282h270v-39z" />
    <glyph glyph-name="lslash" unicode="&#x142;" horiz-adv-x="204" 
d="M125 0h-46v320l-69 -66v44l69 67v340h46v-298l71 68v-46l-71 -67v-362z" />
    <glyph glyph-name="Nacute" unicode="&#x143;" horiz-adv-x="577" 
d="M120 0h-44v674h44l225 -383q78 -139 117 -226l2 1q-8 117 -8 284v324h45v-674h-44l-223 384q-86 151 -118 226l-2 -1q6 -89 6 -285v-324zM354 820h71l-129 -110h-41z" />
    <glyph glyph-name="nacute" unicode="&#x144;" horiz-adv-x="487" 
d="M301 685h66l-117 -136h-35zM74 0v366q0 40 -4 114h43l3 -78h2q19 39 58 63.5t89 24.5q17 0 34.5 -4t39 -16.5t38 -32t27.5 -55t11 -81.5v-301h-46v293q0 157 -117 157q-44 0 -79 -29.5t-47 -77.5q-6 -18 -6 -42v-301h-46z" />
    <glyph glyph-name="Ncommaaccent" unicode="&#x145;" horiz-adv-x="577" 
d="M120 0h-44v674h44l225 -383q78 -139 117 -226l2 1q-8 117 -8 284v324h45v-674h-44l-223 384q-86 151 -118 226l-2 -1q6 -89 6 -285v-324zM235 -209l-13 26q77 14 77 68q0 35 -37 61l41 12q38 -24 38 -70q0 -44 -32 -68t-74 -29z" />
    <glyph glyph-name="ncommaaccent" unicode="&#x146;" horiz-adv-x="487" 
d="M74 0v366q0 40 -4 114h43l3 -78h2q19 39 58 63.5t89 24.5q17 0 34.5 -4t39 -16.5t38 -32t27.5 -55t11 -81.5v-301h-46v293q0 157 -117 157q-44 0 -79 -29.5t-47 -77.5q-6 -18 -6 -42v-301h-46zM199 -205l-13 26q77 14 77 68q0 35 -37 61l41 12q38 -24 38 -70
q0 -44 -32 -68t-74 -29z" />
    <glyph glyph-name="Ncaron" unicode="&#x147;" horiz-adv-x="577" 
d="M120 0h-44v674h44l225 -383q78 -139 117 -226l2 1q-8 117 -8 284v324h45v-674h-44l-223 384q-86 151 -118 226l-2 -1q6 -89 6 -285v-324zM308 705h-40l-101 103h52l69 -70h2l68 70h50z" />
    <glyph glyph-name="ncaron" unicode="&#x148;" horiz-adv-x="487" 
d="M262 549h-36l-88 136h45l60 -97h2l61 97h42zM74 0v366q0 40 -4 114h43l3 -78h2q19 39 58 63.5t89 24.5q17 0 34.5 -4t39 -16.5t38 -32t27.5 -55t11 -81.5v-301h-46v293q0 157 -117 157q-44 0 -79 -29.5t-47 -77.5q-6 -18 -6 -42v-301h-46z" />
    <glyph glyph-name="napostrophe" unicode="&#x149;" horiz-adv-x="487" 
d="M74 0v366q0 40 -4 114h43l3 -78h2q19 39 58 63.5t89 24.5q17 0 34.5 -4t39 -16.5t38 -32t27.5 -55t11 -81.5v-301h-46v293q0 157 -117 157q-44 0 -79 -29.5t-47 -77.5q-6 -18 -6 -42v-301h-46zM47 540l-21 19q37 37 37 80q0 38 -37 61l43 11q36 -21 36 -68q0 -27 -14 -52
t-20.5 -31t-23.5 -20z" />
    <glyph glyph-name="Eng" unicode="&#x14a;" horiz-adv-x="577" 
d="M120 0h-44v674h44l225 -383q78 -139 117 -226l2 1q-8 117 -8 284v324h45v-647q0 -91 -37 -143.5t-120 -68.5l-9 38q61 12 91 47t33 100l-225 384q-86 151 -118 226l-2 -1q6 -89 6 -285v-324z" />
    <glyph glyph-name="eng" unicode="&#x14b;" horiz-adv-x="487" 
d="M74 0v366q0 40 -4 114h43l3 -78h2q19 39 58 63.5t89 24.5q17 0 34.5 -4t39 -16.5t38 -32t27.5 -55t11 -81.5v-251q0 -96 -43.5 -150t-117.5 -67l-9 40q124 26 124 179v241q0 157 -117 157q-44 0 -79 -29.5t-47 -77.5q-6 -18 -6 -42v-301h-46z" />
    <glyph glyph-name="Omacron" unicode="&#x14c;" horiz-adv-x="597" 
d="M304 684q112 0 184 -90.5t72 -251.5q0 -172 -76.5 -262t-189.5 -90q-111 0 -184 90.5t-73 251.5q0 166 75.5 259t191.5 93zM299 645q-72 0 -122 -48t-71 -116t-21 -148q0 -120 56.5 -212t156.5 -92q69 0 119 46t72.5 115t22.5 150q0 74 -21 141t-71 115.5t-121 48.5z
M190 777h219v-39h-219v39z" />
    <glyph glyph-name="omacron" unicode="&#x14d;" horiz-adv-x="478" 
d="M138 625h203v-39h-203v39zM242 490q87 0 142 -66.5t55 -180.5q0 -124 -61 -188.5t-143 -64.5q-84 0 -140 66t-56 181q0 120 59 186.5t144 66.5zM240 451q-52 0 -88 -34t-51 -80t-15 -98q0 -84 42 -147t110 -63q69 0 111.5 63.5t42.5 149.5q0 47 -13.5 92t-49.5 81t-89 36
z" />
    <glyph glyph-name="Obreve" unicode="&#x14e;" horiz-adv-x="597" 
d="M304 684q112 0 184 -90.5t72 -251.5q0 -172 -76.5 -262t-189.5 -90q-111 0 -184 90.5t-73 251.5q0 166 75.5 259t191.5 93zM299 645q-72 0 -122 -48t-71 -116t-21 -148q0 -120 56.5 -212t156.5 -92q69 0 119 46t72.5 115t22.5 150q0 74 -21 141t-71 115.5t-121 48.5z
M188 814h33q13 -48 76 -48q66 0 76 48h33q-1 -40 -29 -65t-81 -25q-52 0 -79.5 24.5t-28.5 65.5z" />
    <glyph glyph-name="obreve" unicode="&#x14f;" horiz-adv-x="478" 
d="M128 672h34q4 -31 24.5 -51.5t51.5 -20.5q34 0 54 21t22 51h34q1 -50 -30 -80.5t-80 -30.5q-55 0 -82.5 33t-27.5 78zM242 490q87 0 142 -66.5t55 -180.5q0 -124 -61 -188.5t-143 -64.5q-84 0 -140 66t-56 181q0 120 59 186.5t144 66.5zM240 451q-52 0 -88 -34t-51 -80
t-15 -98q0 -84 42 -147t110 -63q69 0 111.5 63.5t42.5 149.5q0 47 -13.5 92t-49.5 81t-89 36z" />
    <glyph glyph-name="Ohungarumlaut" unicode="&#x150;" horiz-adv-x="597" 
d="M304 684q112 0 184 -90.5t72 -251.5q0 -172 -76.5 -262t-189.5 -90q-111 0 -184 90.5t-73 251.5q0 166 75.5 259t191.5 93zM299 645q-72 0 -122 -48t-71 -116t-21 -148q0 -120 56.5 -212t156.5 -92q69 0 119 46t72.5 115t22.5 150q0 74 -21 141t-71 115.5t-121 48.5z
M301 823h67l-113 -104h-40zM424 823h67l-114 -104h-39z" />
    <glyph glyph-name="ohungarumlaut" unicode="&#x151;" horiz-adv-x="478" 
d="M237 684h62l-115 -129h-34zM360 684h62l-115 -129h-34zM242 490q87 0 142 -66.5t55 -180.5q0 -124 -61 -188.5t-143 -64.5q-84 0 -140 66t-56 181q0 120 59 186.5t144 66.5zM240 451q-52 0 -88 -34t-51 -80t-15 -98q0 -84 42 -147t110 -63q69 0 111.5 63.5t42.5 149.5
q0 47 -13.5 92t-49.5 81t-89 36z" />
    <glyph glyph-name="OE" unicode="&#x152;" horiz-adv-x="783" 
d="M752 40v-40h-297q-30 -2 -59 -6q-44 -4 -69 -4q-135 0 -212.5 96t-77.5 246q0 171 84 261.5t214 90.5q30 0 70 -4q31 -4 56 -6h276v-40h-257v-260h242v-40h-242v-294h272zM434 42v588q-49 15 -106 15q-111 0 -177 -82.5t-66 -226.5q0 -148 68 -227.5t183 -79.5
q62 0 98 13z" />
    <glyph glyph-name="oe" unicode="&#x153;" horiz-adv-x="774" 
d="M736 249h-304q-1 -111 42 -165t117 -54q53 0 111 26l13 -36q-49 -30 -132 -30q-61 0 -107.5 32t-68.5 94h-2q-20 -62 -66.5 -94t-102.5 -32q-86 0 -141.5 66.5t-55.5 180.5q0 118 57.5 185.5t142.5 67.5q60 0 105.5 -33t63.5 -93h2q21 61 64 93.5t98 32.5
q48 0 82.5 -22.5t51.5 -57.5t24 -67.5t7 -63.5q0 -22 -1 -30zM237 451h-1q-53 0 -88.5 -36t-48.5 -81.5t-13 -94.5q0 -84 42 -147t110 -63q69 0 109.5 61t40.5 150q0 84 -37.5 147.5t-113.5 63.5zM432 287h256q2 67 -28.5 115.5t-91.5 48.5t-95.5 -49.5t-40.5 -114.5z" />
    <glyph glyph-name="Racute" unicode="&#x154;" horiz-adv-x="464" 
d="M76 0v665q58 14 129 14q111 0 167 -54q46 -46 46 -122q0 -129 -126 -176v-2q77 -23 102 -149q28 -141 46 -176h-48q-14 27 -41 166q-14 74 -47.5 107.5t-96.5 35.5h-85v-309h-46zM122 632v-286h86q74 0 118.5 41t44.5 108q0 73 -44 109t-123 36q-52 0 -82 -8zM286 823h71
l-129 -110h-41z" />
    <glyph glyph-name="racute" unicode="&#x155;" horiz-adv-x="272" 
d="M208 685h66l-117 -136h-35zM74 0v346q0 50 -4 134h43l2 -92h2q15 44 49 73t78 29q11 0 16 -1v-46q-5 1 -18 1q-47 0 -79 -37t-40 -93q-3 -21 -3 -44v-270h-46z" />
    <glyph glyph-name="Rcommaaccent" unicode="&#x156;" horiz-adv-x="464" 
d="M76 0v665q58 14 129 14q111 0 167 -54q46 -46 46 -122q0 -129 -126 -176v-2q77 -23 102 -149q28 -141 46 -176h-48q-14 27 -41 166q-14 74 -47.5 107.5t-96.5 35.5h-85v-309h-46zM122 632v-286h86q74 0 118.5 41t44.5 108q0 73 -44 109t-123 36q-52 0 -82 -8zM186 -199
l-13 26q77 14 77 68q0 35 -37 61l41 12q38 -24 38 -70q0 -44 -32 -68t-74 -29z" />
    <glyph glyph-name="rcommaaccent" unicode="&#x157;" horiz-adv-x="272" 
d="M74 0v346q0 50 -4 134h43l2 -92h2q15 44 49 73t78 29q11 0 16 -1v-46q-5 1 -18 1q-47 0 -79 -37t-40 -93q-3 -21 -3 -44v-270h-46zM54 -209l-13 26q77 14 77 68q0 35 -37 61l41 12q38 -24 38 -70q0 -44 -32 -68t-74 -29z" />
    <glyph glyph-name="Rcaron" unicode="&#x158;" horiz-adv-x="464" 
d="M76 0v665q58 14 129 14q111 0 167 -54q46 -46 46 -122q0 -129 -126 -176v-2q77 -23 102 -149q28 -141 46 -176h-48q-14 27 -41 166q-14 74 -47.5 107.5t-96.5 35.5h-85v-309h-46zM122 632v-286h86q74 0 118.5 41t44.5 108q0 73 -44 109t-123 36q-52 0 -82 -8zM245 713
h-40l-101 103h52l69 -70h2l68 70h50z" />
    <glyph glyph-name="rcaron" unicode="&#x159;" horiz-adv-x="272" 
d="M174 549h-36l-88 136h45l60 -97h2l61 97h42zM74 0v346q0 50 -4 134h43l2 -92h2q15 44 49 73t78 29q11 0 16 -1v-46q-5 1 -18 1q-47 0 -79 -37t-40 -93q-3 -21 -3 -44v-270h-46z" />
    <glyph glyph-name="Sacute" unicode="&#x15a;" horiz-adv-x="427" 
d="M39 32l17 38q58 -39 129 -39q70 0 111 38t41 101q0 55 -29.5 92t-93.5 66q-159 66 -159 186q0 74 52 121.5t132 47.5t120 -30l-18 -39q-42 30 -106 30q-67 0 -100.5 -36.5t-33.5 -83.5q0 -55 30 -88t98 -65q80 -39 117 -84t37 -112q0 -79 -53.5 -131.5t-146.5 -52.5
q-40 0 -81 12t-63 29zM281 823h71l-129 -110h-41z" />
    <glyph glyph-name="sacute" unicode="&#x15b;" horiz-adv-x="342" 
d="M229 685h66l-117 -136h-35zM38 23l17 38q51 -31 97 -31q49 0 76 25.5t27 65.5q0 36 -21 61t-69 48q-115 53 -115 133q0 54 38.5 90.5t100.5 36.5q58 0 98 -29l-19 -38q-37 28 -85 28q-41 0 -64 -23.5t-23 -57.5q0 -33 19.5 -53.5t68.5 -44.5q57 -26 87 -59t30 -85
q0 -63 -42.5 -100t-109.5 -37q-66 0 -111 32z" />
    <glyph glyph-name="Scircumflex" unicode="&#x15c;" horiz-adv-x="427" 
d="M39 32l17 38q58 -39 129 -39q70 0 111 38t41 101q0 55 -29.5 92t-93.5 66q-159 66 -159 186q0 74 52 121.5t132 47.5t120 -30l-18 -39q-42 30 -106 30q-67 0 -100.5 -36.5t-33.5 -83.5q0 -55 30 -88t98 -65q80 -39 117 -84t37 -112q0 -79 -53.5 -131.5t-146.5 -52.5
q-40 0 -81 12t-63 29zM196 816h40l101 -103h-52l-68 69h-2l-68 -69h-50z" />
    <glyph glyph-name="scircumflex" unicode="&#x15d;" horiz-adv-x="342" 
d="M154 685h34l88 -136h-45l-59 96h-2l-59 -96h-43zM38 23l17 38q51 -31 97 -31q49 0 76 25.5t27 65.5q0 36 -21 61t-69 48q-115 53 -115 133q0 54 38.5 90.5t100.5 36.5q58 0 98 -29l-19 -38q-37 28 -85 28q-41 0 -64 -23.5t-23 -57.5q0 -33 19.5 -53.5t68.5 -44.5
q57 -26 87 -59t30 -85q0 -63 -42.5 -100t-109.5 -37q-66 0 -111 32z" />
    <glyph glyph-name="Scedilla" unicode="&#x15e;" horiz-adv-x="427" 
d="M39 32l17 38q58 -39 129 -39q70 0 111 38t41 101q0 55 -29.5 92t-93.5 66q-159 66 -159 186q0 74 52 121.5t132 47.5t120 -30l-18 -39q-42 30 -106 30q-67 0 -100.5 -36.5t-33.5 -83.5q0 -55 30 -88t98 -65q80 -39 117 -84t37 -112q0 -68 -39.5 -116.5t-111.5 -62.5
l-30 -50q28 -4 47.5 -23.5t19.5 -46.5q0 -36 -26 -55t-63 -19q-35 0 -62 17l13 33q24 -13 53 -13q43 0 43 34q0 38 -74 46l40 72h-10q-40 0 -81 12t-63 29z" />
    <glyph glyph-name="scedilla" unicode="&#x15f;" horiz-adv-x="342" 
d="M38 23l17 38q51 -31 97 -31q49 0 76 25.5t27 65.5q0 36 -21 61t-69 48q-115 53 -115 133q0 54 38.5 90.5t100.5 36.5q58 0 98 -29l-19 -38q-37 28 -85 28q-41 0 -64 -23.5t-23 -57.5q0 -33 19.5 -53.5t68.5 -44.5q57 -26 87 -59t30 -85q0 -51 -29.5 -86t-79.5 -46
l-30 -50q28 -4 47.5 -22.5t19.5 -45.5q0 -38 -25.5 -57t-63.5 -19q-34 0 -60 17l12 33q22 -13 52 -13q45 0 45 34q-1 39 -75 46l40 72h-5q-66 0 -111 32z" />
    <glyph glyph-name="Scaron" unicode="&#x160;" horiz-adv-x="427" 
d="M39 32l17 38q58 -39 129 -39q70 0 111 38t41 101q0 55 -29.5 92t-93.5 66q-159 66 -159 186q0 74 52 121.5t132 47.5t120 -30l-18 -39q-42 30 -106 30q-67 0 -100.5 -36.5t-33.5 -83.5q0 -55 30 -88t98 -65q80 -39 117 -84t37 -112q0 -79 -53.5 -131.5t-146.5 -52.5
q-40 0 -81 12t-63 29zM248 713h-40l-101 103h52l69 -70h2l68 70h50z" />
    <glyph glyph-name="scaron" unicode="&#x161;" horiz-adv-x="342" 
d="M194 549h-36l-88 136h45l60 -97h2l61 97h42zM38 23l17 38q51 -31 97 -31q49 0 76 25.5t27 65.5q0 36 -21 61t-69 48q-115 53 -115 133q0 54 38.5 90.5t100.5 36.5q58 0 98 -29l-19 -38q-37 28 -85 28q-41 0 -64 -23.5t-23 -57.5q0 -33 19.5 -53.5t68.5 -44.5
q57 -26 87 -59t30 -85q0 -63 -42.5 -100t-109.5 -37q-66 0 -111 32z" />
    <glyph glyph-name="Tcommaaccent" unicode="&#x162;" horiz-adv-x="425" 
d="M190 0v635h-192v39h429v-39h-191v-635h-46zM156 -209l-13 26q77 14 77 68q0 35 -37 61l41 12q38 -24 38 -70q0 -44 -32 -68t-74 -29z" />
    <glyph glyph-name="tcommaaccent" unicode="&#x163;" horiz-adv-x="282" 
d="M91 566l47 20v-106h123v-38h-123v-317q0 -95 64 -95q28 0 47 7l6 -36q-25 -10 -60 -10q-51 0 -77 32q-27 32 -27 113v306h-74v38h74v86zM107 -214l-13 26q77 14 77 68q0 35 -37 61l41 12q38 -24 38 -70q0 -44 -32 -68t-74 -29z" />
    <glyph glyph-name="Tcaron" unicode="&#x164;" horiz-adv-x="425" 
d="M190 0v635h-192v39h429v-39h-191v-635h-46zM232 710h-40l-101 103h52l69 -70h2l68 70h50z" />
    <glyph glyph-name="tcaron" unicode="&#x165;" horiz-adv-x="292" 
d="M91 566l47 20v-106h123v-38h-123v-317q0 -95 64 -95q28 0 47 7l6 -36q-25 -10 -60 -10q-51 0 -77 32q-27 32 -27 113v306h-74v38h74v86zM240 540l-21 19q37 35 37 80q0 38 -36 61l42 11q36 -20 36 -68q0 -57 -58 -103z" />
    <glyph glyph-name="Tbar" unicode="&#x166;" horiz-adv-x="425" 
d="M427 635h-191v-259h117v-38h-117v-338h-46v338h-117v38h117v259h-192v39h429v-39z" />
    <glyph glyph-name="tbar" unicode="&#x167;" horiz-adv-x="282" 
d="M261 442h-123v-143h97v-38h-97v-136q0 -95 64 -95q28 0 47 7l6 -36q-25 -10 -60 -10q-51 0 -77 32q-27 32 -27 113v125h-64v38h64v143h-74v38h74v86l47 20v-106h123v-38z" />
    <glyph glyph-name="Utilde" unicode="&#x168;" horiz-adv-x="568" 
d="M76 674h46v-423q0 -114 43.5 -167.5t114.5 -53.5q77 0 121.5 54.5t44.5 166.5v423h46v-418q0 -139 -60 -202.5t-154 -63.5q-89 0 -145.5 60.5t-56.5 195.5v428zM205 716h-32q-1 36 15.5 60.5t44.5 24.5q17 0 53 -20q34 -17 47 -17t20 7.5t8 29.5h32q0 -79 -60 -79
q-22 0 -55 19q-34 19 -46 19q-22 0 -27 -44z" />
    <glyph glyph-name="utilde" unicode="&#x169;" horiz-adv-x="481" 
d="M165 570h-33q-1 38 15 61.5t44 23.5q17 0 55 -21q30 -17 42 -17q25 0 28 40h32q0 -81 -60 -81q-19 0 -53 19q-31 18 -43 18q-22 0 -27 -43zM407 480v-362q0 -48 4 -118h-42l-4 75h-2q-18 -34 -55.5 -59.5t-89.5 -25.5q-60 0 -103.5 46t-43.5 155v289h46v-279
q0 -171 112 -171q46 0 79 28.5t46 65.5q7 26 7 50v306h46z" />
    <glyph glyph-name="Umacron" unicode="&#x16a;" horiz-adv-x="568" 
d="M76 674h46v-423q0 -114 43.5 -167.5t114.5 -53.5q77 0 121.5 54.5t44.5 166.5v423h46v-418q0 -139 -60 -202.5t-154 -63.5q-89 0 -145.5 60.5t-56.5 195.5v428zM173 772h219v-39h-219v39z" />
    <glyph glyph-name="umacron" unicode="&#x16b;" horiz-adv-x="481" 
d="M138 625h203v-39h-203v39zM407 480v-362q0 -48 4 -118h-42l-4 75h-2q-18 -34 -55.5 -59.5t-89.5 -25.5q-60 0 -103.5 46t-43.5 155v289h46v-279q0 -171 112 -171q46 0 79 28.5t46 65.5q7 26 7 50v306h46z" />
    <glyph glyph-name="Ubreve" unicode="&#x16c;" horiz-adv-x="568" 
d="M76 674h46v-423q0 -114 43.5 -167.5t114.5 -53.5q77 0 121.5 54.5t44.5 166.5v423h46v-418q0 -139 -60 -202.5t-154 -63.5q-89 0 -145.5 60.5t-56.5 195.5v428zM174 814h33q13 -48 76 -48q66 0 76 48h33q-1 -40 -29 -65t-81 -25q-52 0 -79.5 24.5t-28.5 65.5z" />
    <glyph glyph-name="ubreve" unicode="&#x16d;" horiz-adv-x="481" 
d="M130 672h34q4 -31 24.5 -51.5t51.5 -20.5q34 0 54 21t22 51h34q1 -50 -30 -80.5t-80 -30.5q-55 0 -82.5 33t-27.5 78zM407 480v-362q0 -48 4 -118h-42l-4 75h-2q-18 -34 -55.5 -59.5t-89.5 -25.5q-60 0 -103.5 46t-43.5 155v289h46v-279q0 -171 112 -171q46 0 79 28.5
t46 65.5q7 26 7 50v306h46z" />
    <glyph glyph-name="Uring" unicode="&#x16e;" horiz-adv-x="568" 
d="M76 674h46v-423q0 -114 43.5 -167.5t114.5 -53.5q77 0 121.5 54.5t44.5 166.5v423h46v-418q0 -139 -60 -202.5t-154 -63.5q-89 0 -145.5 60.5t-56.5 195.5v428zM283 861h1q38 0 63 -25t25 -61q0 -35 -26 -59t-63 -24q-38 0 -63.5 24t-25.5 59q0 36 25.5 61t63.5 25z
M282 833h-1q-22 0 -35.5 -17t-13.5 -41q0 -21 14.5 -37.5t35.5 -16.5q22 0 36.5 16t14.5 40t-14.5 40t-36.5 16z" />
    <glyph glyph-name="uring" unicode="&#x16f;" horiz-adv-x="481" 
d="M241 534q-39 0 -65 25t-26 61q0 38 25.5 64t66.5 26q38 0 63.5 -26t25.5 -64q0 -36 -27 -61t-63 -25zM240 564q24 0 39 16.5t15 41.5t-15.5 41.5t-39.5 16.5q-23 0 -37 -17.5t-14 -42.5q0 -22 15 -39t37 -17zM407 480v-362q0 -48 4 -118h-42l-4 75h-2
q-18 -34 -55.5 -59.5t-89.5 -25.5q-60 0 -103.5 46t-43.5 155v289h46v-279q0 -171 112 -171q46 0 79 28.5t46 65.5q7 26 7 50v306h46z" />
    <glyph glyph-name="Uhungarumlaut" unicode="&#x170;" horiz-adv-x="568" 
d="M76 674h46v-423q0 -114 43.5 -167.5t114.5 -53.5q77 0 121.5 54.5t44.5 166.5v423h46v-418q0 -139 -60 -202.5t-154 -63.5q-89 0 -145.5 60.5t-56.5 195.5v428zM269 820h67l-113 -104h-40zM392 820h67l-114 -104h-39z" />
    <glyph glyph-name="uhungarumlaut" unicode="&#x171;" horiz-adv-x="481" 
d="M239 684h62l-115 -129h-34zM362 684h62l-115 -129h-34zM407 480v-362q0 -48 4 -118h-42l-4 75h-2q-18 -34 -55.5 -59.5t-89.5 -25.5q-60 0 -103.5 46t-43.5 155v289h46v-279q0 -171 112 -171q46 0 79 28.5t46 65.5q7 26 7 50v306h46z" />
    <glyph glyph-name="Uogonek" unicode="&#x172;" horiz-adv-x="568" 
d="M366 -143l9 -29q-23 -19 -66 -19q-35 0 -57 19.5t-22 53.5q0 50 56 108h-9q-90 2 -145.5 62t-55.5 194v428h46v-423q0 -114 43.5 -167.5t114.5 -53.5q77 0 121.5 54.5t44.5 166.5v423h46v-418q0 -109 -41 -171.5t-108 -81.5q-27 -22 -48 -53t-21 -59q0 -22 13 -34t33 -12
q24 0 46 12z" />
    <glyph glyph-name="uogonek" unicode="&#x173;" horiz-adv-x="481" 
d="M407 480v-362q0 -70 6 -118l-4 3q-52 -64 -52 -116q0 -24 13 -36.5t33 -12.5q28 0 46 10l9 -29q-26 -19 -67 -19q-35 0 -56.5 20t-21.5 55q0 49 56 128l-4 72h-2q-18 -34 -55.5 -59.5t-89.5 -25.5q-60 0 -103.5 46t-43.5 155v289h46v-279q0 -171 112 -171q46 0 79 28.5
t46 65.5q7 21 7 50v306h46z" />
    <glyph glyph-name="Wcircumflex" unicode="&#x174;" horiz-adv-x="766" 
d="M226 0h-43l-165 674h47l90 -374q40 -169 51 -236h3q9 62 56 237l99 373h44l92 -368q42 -172 51 -242h3q15 86 55 238l99 372h47l-183 -674h-44l-95 390q-35 141 -47 226h-2q-13 -83 -54 -227zM362 813h40l101 -103h-52l-68 69h-2l-68 -69h-50z" />
    <glyph glyph-name="wcircumflex" unicode="&#x175;" horiz-adv-x="666" 
d="M315 685h34l88 -136h-45l-59 96h-2l-59 -96h-43zM21 480h47l75 -267q24 -87 38 -152h3q13 58 43 151l86 268h42l82 -263q26 -82 44 -156h3q10 53 40 153l77 266h47l-148 -480h-39l-84 269q-26 82 -43 157h-2q-15 -65 -45 -159l-87 -267h-40z" />
    <glyph glyph-name="Ycircumflex" unicode="&#x176;" horiz-adv-x="469" 
d="M259 0h-46v295l-195 379h51l98 -193q53 -105 71 -149h2q12 30 73 151l101 191h51l-206 -379v-295zM216 813h40l101 -103h-52l-68 69h-2l-68 -69h-50z" />
    <glyph glyph-name="ycircumflex" unicode="&#x177;" horiz-adv-x="403" 
d="M184 685h34l88 -136h-45l-59 96h-2l-59 -96h-43zM13 480h49l110 -307q17 -50 32 -106h2l33 108l103 305h49l-121 -331q-45 -129 -76.5 -198.5t-74.5 -112.5q-41 -40 -80 -56l-18 39q46 21 80 59q45 51 70 113q6 18 6 23t-5 20z" />
    <glyph glyph-name="Ydieresis" unicode="&#x178;" horiz-adv-x="469" 
d="M259 0h-46v295l-195 379h51l98 -193q53 -105 71 -149h2q12 30 73 151l101 191h51l-206 -379v-295zM161 717h-1q-16 0 -25.5 11t-9.5 28q0 16 10.5 27.5t25.5 11.5q16 0 26 -11.5t10 -27.5q0 -17 -9.5 -28t-26.5 -11zM325 717h-1q-15 0 -24.5 11t-9.5 28q0 16 10.5 27.5
t25.5 11.5q16 0 26 -11.5t10 -27.5q0 -17 -10 -28t-27 -11z" />
    <glyph glyph-name="Zacute" unicode="&#x179;" horiz-adv-x="479" 
d="M31 0v30l357 602v3h-328v39h386v-30l-358 -602v-3h361v-39h-418zM312 820h71l-129 -110h-41z" />
    <glyph glyph-name="zacute" unicode="&#x17a;" horiz-adv-x="369" 
d="M246 685h66l-117 -136h-35zM16 0v28l232 343l49 68v2h-260v39h316l-1 -31l-233 -342l-46 -66v-2h279v-39h-336z" />
    <glyph glyph-name="Zdotaccent" unicode="&#x17b;" horiz-adv-x="479" 
d="M31 0v30l357 602v3h-328v39h386v-30l-358 -602v-3h361v-39h-418zM247 725h-1q-15 0 -25.5 11t-10.5 26t11 26t26 11t25.5 -11t10.5 -26t-10.5 -26t-25.5 -11z" />
    <glyph glyph-name="zdotaccent" unicode="&#x17c;" horiz-adv-x="369" 
d="M188 575h-1q-15 0 -25.5 11.5t-10.5 26.5t11 26.5t26 11.5q16 0 26 -11t10 -27t-10 -27t-26 -11zM16 0v28l232 343l49 68v2h-260v39h316l-1 -31l-233 -342l-46 -66v-2h279v-39h-336z" />
    <glyph glyph-name="Zcaron" unicode="&#x17d;" horiz-adv-x="479" 
d="M31 0v30l357 602v3h-328v39h386v-30l-358 -602v-3h361v-39h-418zM271 710h-40l-101 103h52l69 -70h2l68 70h50z" />
    <glyph glyph-name="zcaron" unicode="&#x17e;" horiz-adv-x="369" 
d="M217 549h-36l-88 136h45l60 -97h2l61 97h42zM16 0v28l232 343l49 68v2h-260v39h316l-1 -31l-233 -342l-46 -66v-2h279v-39h-336z" />
    <glyph glyph-name="florin" unicode="&#x192;" horiz-adv-x="449" 
d="M101 362v37h99l7 56q27 205 163 205q36 -1 57 -13l-11 -36q-27 10 -53 10q-92 0 -111 -161l-7 -61h119v-37h-124l-28 -231q-13 -105 -47.5 -158t-104.5 -53q-39 0 -66 17l13 35q25 -13 58 -13q46 0 69.5 43t33.5 128l27 232h-94z" />
    <glyph glyph-name="Ohorn" unicode="&#x1a0;" horiz-adv-x="597" 
d="M298 29q69 0 119 46t72.5 115t22.5 150q0 74 -21 141t-71 115.5t-121 48.5q-72 0 -122 -48t-71 -116t-21 -148q0 -120 56.5 -212t156.5 -92zM516 736l42 8q14 -30 14 -65q0 -38 -23.5 -59.5t-69.5 -14.5q81 -94 81 -263q0 -172 -76.5 -262t-189.5 -90q-111 0 -184 90.5
t-73 251.5q0 166 75.5 259t191.5 93q41 0 85 -16q6 -2 21 -8.5l25.5 -11t24.5 -8t24 -3.5q25 0 35 10.5t10 32.5q0 28 -13 56z" />
    <glyph glyph-name="ohorn" unicode="&#x1a1;" horiz-adv-x="478" 
d="M240 451q-52 0 -88 -34t-51 -80t-15 -98q0 -84 42 -147t110 -63q69 0 111.5 63.5t42.5 149.5q0 47 -13.5 92t-49.5 81t-89 36zM417 545l41 8q14 -28 14 -58q0 -37 -22.5 -57.5t-64.5 -14.5q54 -65 54 -180q0 -124 -61 -188.5t-143 -64.5q-84 0 -140 66t-56 181
q0 120 59 186.5t144 66.5q37 0 70 -13q4 -2 20 -8.5t29.5 -10.5t27.5 -4q40 0 40 41q0 26 -12 50z" />
    <glyph glyph-name="Uhorn" unicode="&#x1af;" horiz-adv-x="584" 
d="M525 760l42 8q13 -28 13 -59q0 -32 -19 -51t-56 -19h-13v-383q0 -139 -60 -202.5t-154 -63.5q-89 0 -145.5 60.5t-56.5 195.5v428h46v-423q0 -114 43.5 -167.5t114.5 -53.5q77 0 121.5 54.5t44.5 166.5v423h51q22 0 31.5 8.5t9.5 27.5q0 26 -13 50z" />
    <glyph glyph-name="uhorn" unicode="&#x1b0;" horiz-adv-x="481" 
d="M440 568l41 8q15 -25 15 -58q0 -32 -20.5 -52t-56.5 -20h-12v-328q0 -48 4 -118h-42l-4 75h-2q-18 -34 -55.5 -59.5t-89.5 -25.5q-60 0 -103.5 46t-43.5 155v289h46v-279q0 -171 112 -171q46 0 79 28.5t46 65.5q7 26 7 50v306h51q42 0 42 38q0 26 -14 50z" />
    <glyph glyph-name="uni01FA" unicode="&#x1fa;" horiz-adv-x="536" 
d="M274 690q-36 0 -57.5 19.5t-21.5 49.5q0 31 22 51.5t58 20.5q35 0 56.5 -20.5t21.5 -51.5q0 -29 -22.5 -49t-56.5 -20zM273 718q20 0 32.5 12t12.5 31q0 18 -12.5 30t-32.5 12t-31.5 -12.5t-11.5 -31.5q0 -17 12.5 -29t30.5 -12zM341 930h80l-136 -80h-48zM388 235h-237
l-74 -235h-47l218 674h45l218 -674h-47zM164 274h211l-70 214q-19 58 -34 130h-3q-11 -53 -33 -128z" />
    <glyph glyph-name="uni01FB" unicode="&#x1fb;" horiz-adv-x="416" 
d="M269 810h68l-132 -97h-36zM346 311v-199q0 -70 6 -112h-42l-6 64h-3q-19 -31 -53.5 -52.5t-80.5 -21.5q-61 0 -96 38.5t-35 93.5q0 84 68.5 129.5t195.5 44.5v14q0 141 -111 141q-59 0 -105 -32l-14 34q53 37 126 37q150 0 150 -179zM300 153v104q-215 5 -215 -129
q0 -49 25 -74t62 -25q48 0 80.5 27t43.5 68q4 13 4 29zM209 515q-39 0 -65 25t-26 61q0 38 25.5 64t66.5 26q38 0 63.5 -26t25.5 -64q0 -36 -27 -61t-63 -25zM208 545q24 0 39 16.5t15 41.5t-15.5 41.5t-39.5 16.5q-23 0 -37 -17.5t-14 -42.5q0 -22 15 -39t37 -17z" />
    <glyph glyph-name="AEacute" unicode="&#x1fc;" horiz-adv-x="676" 
d="M50 0h-47l286 674h335l-1 -40h-261l25 -260h228v-40h-223l30 -294h226l-1 -40h-266l-28 263h-191zM179 301h171l-20 218q-10 118 -10 121h-5l-46 -117zM463 820h71l-129 -110h-41z" />
    <glyph glyph-name="aeacute" unicode="&#x1fd;" horiz-adv-x="683" 
d="M403 685h66l-117 -136h-35zM645 253h-300q-3 -113 39.5 -168t113.5 -55q68 0 113 26l13 -36q-51 -30 -132 -30q-57 0 -102.5 30t-60.5 83h-2q-17 -53 -60 -83t-99 -30q-62 0 -96.5 37.5t-34.5 91.5q0 83 68.5 128t196.5 44v27q0 19 -4.5 39t-15 42.5t-34.5 37t-58 14.5
q-61 0 -106 -33l-15 34q57 38 125 38q116 0 138 -109h2q19 51 59 80t92 29q47 0 81 -22.5t50 -58t23 -67t7 -60.5q0 -20 -1 -29zM302 163v90q-218 5 -218 -129q0 -45 25.5 -70t63.5 -25q49 -1 81.5 27t43.5 72q4 16 4 35zM346 291h251q3 62 -28 111t-88 49q-61 0 -96.5 -49
t-38.5 -111z" />
    <glyph glyph-name="Oslashacute" unicode="&#x1fe;" horiz-adv-x="597" 
d="M82 -28l-28 21l58 90q-75 95 -75 250q0 166 76 258.5t188 92.5q91 0 157 -59l52 77l32 -20l-57 -87q75 -96 75 -252q0 -173 -76.5 -263t-183.5 -90q-96 0 -163 63zM139 127l295 459q-61 59 -134 59q-71 0 -122 -49t-72 -116t-21 -142q0 -116 52 -212zM457 551l-296 -459
q55 -63 137 -63q69 0 119 47t72.5 116t22.5 148q0 120 -52 211h-3zM368 827h71l-129 -110h-41z" />
    <glyph glyph-name="oslashacute" unicode="&#x1ff;" horiz-adv-x="478" 
d="M292 685h66l-117 -136h-35zM241 490h1q61 0 110 -37l34 53l31 -19l-38 -61q60 -69 60 -182q0 -125 -60 -189.5t-140 -64.5q-65 0 -112 37l-35 -54l-28 22l36 59q-61 69 -61 183q0 120 59 186.5t143 66.5zM126 93l203 322q-33 36 -90 36q-77 0 -115 -65t-38 -147t38 -145z
M353 384l-203 -321q35 -34 86 -34q72 0 114 63t42 150q0 81 -37 142h-2z" />
    <glyph glyph-name="Scommaaccent" unicode="&#x218;" horiz-adv-x="427" 
d="M39 32l17 38q58 -39 129 -39q70 0 111 38t41 101q0 55 -29.5 92t-93.5 66q-159 66 -159 186q0 74 52 121.5t132 47.5t120 -30l-18 -39q-42 30 -106 30q-67 0 -100.5 -36.5t-33.5 -83.5q0 -55 30 -88t98 -65q80 -39 117 -84t37 -112q0 -79 -53.5 -131.5t-146.5 -52.5
q-40 0 -81 12t-63 29zM159 -209l-13 26q77 14 77 68q0 35 -37 61l41 12q38 -24 38 -70q0 -44 -32 -68t-74 -29z" />
    <glyph glyph-name="scommaaccent" unicode="&#x219;" horiz-adv-x="342" 
d="M38 23l17 38q51 -31 97 -31q49 0 76 25.5t27 65.5q0 36 -21 61t-69 48q-115 53 -115 133q0 54 38.5 90.5t100.5 36.5q58 0 98 -29l-19 -38q-37 28 -85 28q-41 0 -64 -23.5t-23 -57.5q0 -33 19.5 -53.5t68.5 -44.5q57 -26 87 -59t30 -85q0 -63 -42.5 -100t-109.5 -37
q-66 0 -111 32zM119 -209l-13 26q77 14 77 68q0 35 -37 61l41 12q38 -24 38 -70q0 -44 -32 -68t-74 -29z" />
    <glyph glyph-name="uni021A" unicode="&#x21a;" horiz-adv-x="425" 
d="M190 0v635h-192v39h429v-39h-191v-635h-46zM156 -209l-13 26q77 14 77 68q0 35 -37 61l41 12q38 -24 38 -70q0 -44 -32 -68t-74 -29z" />
    <glyph glyph-name="uni021B" unicode="&#x21b;" horiz-adv-x="282" 
d="M91 566l47 20v-106h123v-38h-123v-317q0 -95 64 -95q28 0 47 7l6 -36q-25 -10 -60 -10q-51 0 -77 32q-27 32 -27 113v306h-74v38h74v86zM107 -214l-13 26q77 14 77 68q0 35 -37 61l41 12q38 -24 38 -70q0 -44 -32 -68t-74 -29z" />
    <glyph glyph-name="uni021C" unicode="&#x21c;" horiz-adv-x="405" 
d="M47 -104l-6 38q131 22 205 88t74 162q0 69 -41.5 110.5t-108.5 40.5q-30 0 -80 -15l-8 37q83 20 135.5 69t52.5 113q0 47 -31.5 76t-82.5 29q-63 0 -118 -32l-11 33q20 14 59.5 26.5t76.5 12.5q70 0 111.5 -40t41.5 -101q0 -55 -32 -99.5t-82 -70.5v-3q73 -6 119 -55
t46 -128q0 -111 -86 -190t-234 -101z" />
    <glyph glyph-name="uni021D" unicode="&#x21d;" horiz-adv-x="363" 
d="M32 -206l-4 38q20 2 47.5 8.5t67 23t71.5 38.5t55 59t23 82q0 56 -36.5 91t-100.5 35q-28 0 -78 -12l-6 37q175 44 175 155q0 48 -29 75t-78 27t-109 -35l-13 33q65 41 131 41q65 0 105 -37.5t40 -96.5q0 -51 -28.5 -90t-73.5 -59v-3q65 -7 106 -48.5t41 -106.5
q0 -95 -78 -167t-228 -88z" />
    <glyph glyph-name="uni0232" unicode="&#x232;" horiz-adv-x="469" 
d="M259 0h-46v295l-195 379h51l98 -193q53 -105 71 -149h2q12 30 73 151l101 191h51l-206 -379v-295zM125 772h219v-39h-219v39z" />
    <glyph glyph-name="uni0233" unicode="&#x233;" horiz-adv-x="403" 
d="M101 625h203v-39h-203v39zM13 480h49l110 -307q17 -50 32 -106h2l33 108l103 305h49l-121 -331q-45 -129 -76.5 -198.5t-74.5 -112.5q-41 -40 -80 -56l-18 39q46 21 80 59q45 51 70 113q6 18 6 23t-5 20z" />
    <glyph glyph-name="circumflex" unicode="&#x2c6;" 
d="M132 685h34l88 -136h-45l-59 96h-2l-59 -96h-43z" />
    <glyph glyph-name="caron" unicode="&#x2c7;" 
d="M169 549h-36l-88 136h45l60 -97h2l61 97h42z" />
    <glyph glyph-name="uni02C9" unicode="&#x2c9;" 
d="M49 625h203v-39h-203v39z" />
    <glyph glyph-name="breve" unicode="&#x2d8;" 
d="M40 672h34q4 -31 24.5 -51.5t51.5 -20.5q34 0 54 21t22 51h34q1 -50 -30 -80.5t-80 -30.5q-55 0 -82.5 33t-27.5 78z" />
    <glyph glyph-name="dotaccent" unicode="&#x2d9;" 
d="M151 575h-1q-15 0 -25.5 11.5t-10.5 26.5t11 26.5t26 11.5q16 0 26 -11t10 -27t-10 -27t-26 -11z" />
    <glyph glyph-name="ring" unicode="&#x2da;" 
d="M135 534q-39 0 -65 25t-26 61q0 38 25.5 64t66.5 26q38 0 63.5 -26t25.5 -64q0 -36 -27 -61t-63 -25zM134 564q24 0 39 16.5t15 41.5t-15.5 41.5t-39.5 16.5q-23 0 -37 -17.5t-14 -42.5q0 -22 15 -39t37 -17z" />
    <glyph glyph-name="ogonek" unicode="&#x2db;" 
d="M146 5h41q-66 -73 -66 -116q0 -23 13.5 -35.5t33.5 -12.5q24 0 46 10l9 -29q-25 -19 -66 -19q-35 0 -57.5 20t-22.5 54q0 59 69 128z" />
    <glyph glyph-name="tilde" unicode="&#x2dc;" 
d="M75 570h-33q-1 38 15 61.5t44 23.5q17 0 55 -21q30 -17 42 -17q25 0 28 40h32q0 -81 -60 -81q-19 0 -53 19q-31 18 -43 18q-22 0 -27 -43z" />
    <glyph glyph-name="hungarumlaut" unicode="&#x2dd;" 
d="M145 684h62l-115 -129h-34zM268 684h62l-115 -129h-34z" />
    <glyph glyph-name="uni037E" unicode="&#x37e;" horiz-adv-x="177" 
d="M70 -121l-37 -5q11 34 24.5 101t17.5 111l62 5q-10 -49 -32.5 -118.5t-34.5 -93.5zM101 348h-1q-17 0 -28.5 13t-11.5 32q0 20 11.5 33.5t29.5 13.5t29.5 -13t11.5 -34q0 -19 -11.5 -32t-29.5 -13z" />
    <glyph glyph-name="tonos" unicode="&#x384;" 
d="M129 686h56l-75 -136h-31z" />
    <glyph glyph-name="dieresistonos" unicode="&#x385;" horiz-adv-x="293" 
d="M137 693h50l-41 -144h-27zM49 577h-1q-16 0 -26 10.5t-10 25.5t10.5 25t26.5 10q14 0 24 -10t10 -25t-9.5 -25.5t-24.5 -10.5zM244 577h-1q-14 0 -24 10.5t-10 25.5t10.5 25t25.5 10t25 -10t10 -25t-10 -25.5t-26 -10.5z" />
    <glyph glyph-name="Alphatonos" unicode="&#x386;" horiz-adv-x="536" 
d="M388 235h-237l-74 -235h-47l218 674h45l218 -674h-47zM164 274h211l-70 214q-19 58 -34 130h-3q-11 -53 -33 -128zM89 674h50l-31 -141h-28z" />
    <glyph glyph-name="anoteleia" unicode="&#x387;" horiz-adv-x="177" 
d="M88 276h-1q-17 0 -28.5 13t-11.5 32q0 21 12 34t30 13q19 0 29.5 -13t10.5 -34q0 -19 -11 -32t-30 -13z" />
    <glyph glyph-name="Epsilontonos" unicode="&#x388;" horiz-adv-x="466" 
d="M406 375v-40h-242v-295h272v-40h-318v674h303v-40h-257v-259h242zM9 674h50l-30 -141h-29z" />
    <glyph glyph-name="Etatonos" unicode="&#x389;" horiz-adv-x="612" 
d="M118 674h46v-298h326v298h46v-674h-46v337h-326v-337h-46v674zM9 674h50l-30 -141h-29z" />
    <glyph glyph-name="Iotatonos" unicode="&#x38a;" horiz-adv-x="239" 
d="M118 674h46v-674h-46v674zM9 674h50l-30 -141h-29z" />
    <glyph glyph-name="Omicrontonos" unicode="&#x38c;" horiz-adv-x="615" 
d="M313 -10h-1q-111 0 -184 90.5t-73 251.5q0 166 75.5 259t191.5 93q112 0 184 -90.5t72 -251.5q0 -172 -76.5 -262t-188.5 -90zM315 29h1q69 0 119 46t72.5 115t22.5 150q0 74 -21 141t-71 115.5t-121 48.5q-72 0 -122 -48t-71 -116t-21 -148q0 -76 22.5 -143.5t72.5 -114
t117 -46.5zM9 674h50l-30 -141h-29z" />
    <glyph glyph-name="Upsilontonos" unicode="&#x38e;" horiz-adv-x="605" 
d="M100 644l10 36q24 -3 60 -24.5t61 -50.5q96 -105 115 -278h2q23 163 126 272q60 64 117 81l11 -35q-27 -13 -54 -36t-59.5 -60.5t-60.5 -96t-45 -129.5q-16 -68 -16 -131v-192h-46v193q0 70 -14 131q-29 141 -87.5 219.5t-119.5 100.5zM9 674h50l-30 -141h-29z" />
    <glyph glyph-name="Omegatonos" unicode="&#x38f;" horiz-adv-x="624" 
d="M454 44v-3h138v-41h-204v34q64 47 104.5 135t40.5 185q0 49 -13 98.5t-37 93.5t-66 71.5t-95 27.5q-69 0 -120 -46t-73 -110t-22 -134q0 -94 42 -185.5t103 -135.5v-34h-205v41h138v3q-56 53 -91.5 134t-35.5 178q0 150 76.5 239t190.5 89q112 0 184 -88.5t72 -234.5
q0 -103 -35.5 -185t-91.5 -132zM9 674h50l-30 -141h-29z" />
    <glyph glyph-name="iotadieresistonos" unicode="&#x390;" horiz-adv-x="195" 
d="M120 480v-390q0 -35 9 -48.5t36 -12.5l-5 -37q-7 -2 -21 -2q-65 0 -65 96v394h46zM98 679h50l-42 -144h-27zM8 564h-1q-15 0 -24.5 10t-9.5 25t10.5 25t25.5 10q14 0 23.5 -10t9.5 -25t-9.5 -25t-24.5 -10zM205 564h-1q-14 0 -23.5 10.5t-9.5 24.5t10.5 24.5t24.5 10.5
q15 0 24.5 -10t9.5 -25t-9.5 -25t-25.5 -10z" />
    <glyph glyph-name="Alpha" unicode="&#x391;" horiz-adv-x="536" 
d="M388 235h-237l-74 -235h-47l218 674h45l218 -674h-47zM164 274h211l-70 214q-19 58 -34 130h-3q-11 -53 -33 -128z" />
    <glyph glyph-name="Beta" unicode="&#x392;" horiz-adv-x="465" 
d="M76 1v664q59 14 122 14q111 0 164 -53q41 -43 41 -111q0 -52 -31.5 -92.5t-82.5 -58.5v-2q55 -13 96.5 -57t41.5 -117q0 -78 -49 -130q-59 -63 -194 -63q-39 0 -108 6zM122 633v-254h81q67 0 109.5 37.5t42.5 95.5q0 127 -160 127q-47 0 -73 -6zM122 341v-301
q21 -5 71 -5q82 0 134 37t52 115q0 76 -53 115t-134 39h-70z" />
    <glyph glyph-name="Gamma" unicode="&#x393;" horiz-adv-x="397" 
d="M76 674h302v-39h-256v-635h-46v674z" />
    <glyph glyph-name="uni0394" unicode="&#x394;" horiz-adv-x="547" 
d="M31 0v32l219 642h45l219 -642v-32h-483zM79 40h387l-145 424q-37 111 -48 154h-3q-13 -54 -44 -143z" />
    <glyph glyph-name="Epsilon" unicode="&#x395;" horiz-adv-x="425" 
d="M364 375v-40h-242v-295h272v-40h-318v674h303v-40h-257v-259h242z" />
    <glyph glyph-name="Zeta" unicode="&#x396;" horiz-adv-x="479" 
d="M31 0v30l357 602v3h-328v39h386v-30l-358 -602v-3h361v-39h-418z" />
    <glyph glyph-name="Eta" unicode="&#x397;" horiz-adv-x="570" 
d="M76 674h46v-298h326v298h46v-674h-46v337h-326v-337h-46v674z" />
    <glyph glyph-name="Theta" unicode="&#x398;" horiz-adv-x="597" 
d="M295 -10h-1q-111 0 -184 90.5t-73 251.5q0 166 75.5 259t191.5 93q112 0 184 -90.5t72 -251.5q0 -172 -76.5 -262t-188.5 -90zM297 29h1q69 0 119 46t72.5 115t22.5 150q0 74 -21 141t-71 115.5t-121 48.5q-72 0 -122 -48t-71 -116t-21 -148q0 -76 22.5 -143.5t72.5 -114
t117 -46.5zM164 370h268v-40h-268v40z" />
    <glyph glyph-name="Iota" unicode="&#x399;" horiz-adv-x="198" 
d="M76 674h46v-674h-46v674z" />
    <glyph glyph-name="Kappa" unicode="&#x39a;" horiz-adv-x="460" 
d="M76 0v674h46v-338h3q10 15 54 72l212 266h56l-232 -286l250 -388h-54l-228 355l-61 -75v-280h-46z" />
    <glyph glyph-name="Lambda" unicode="&#x39b;" horiz-adv-x="536" 
d="M511 0h-47l-159 488q-19 58 -34 130h-3q-11 -53 -33 -128l-158 -490h-47l218 674h45z" />
    <glyph glyph-name="Mu" unicode="&#x39c;" horiz-adv-x="717" 
d="M613 0l-18 321q-14 232 -12 296h-4q-31 -110 -81 -252l-128 -365h-30l-121 354q-58 170 -80 263h-3q-1 -121 -13 -305l-18 -312h-46l45 674h53l130 -376q53 -161 69 -222h3q15 62 69 221l132 377h57l42 -674h-46z" />
    <glyph glyph-name="Nu" unicode="&#x39d;" horiz-adv-x="577" 
d="M120 0h-44v674h44l225 -383q78 -139 117 -226l2 1q-8 117 -8 284v324h45v-674h-44l-223 384q-86 151 -118 226l-2 -1q6 -89 6 -285v-324z" />
    <glyph glyph-name="Xi" unicode="&#x39e;" horiz-adv-x="461" 
d="M46 674h376v-40h-376v40zM76 371h316v-39h-316v39zM39 40h391v-40h-391v40z" />
    <glyph glyph-name="Omicron" unicode="&#x39f;" horiz-adv-x="597" 
d="M295 -10h-1q-111 0 -184 90.5t-73 251.5q0 166 75.5 259t191.5 93q112 0 184 -90.5t72 -251.5q0 -172 -76.5 -262t-188.5 -90zM297 29h1q69 0 119 46t72.5 115t22.5 150q0 74 -21 141t-71 115.5t-121 48.5q-72 0 -122 -48t-71 -116t-21 -148q0 -76 22.5 -143.5t72.5 -114
t117 -46.5z" />
    <glyph glyph-name="Pi" unicode="&#x3a0;" horiz-adv-x="554" 
d="M477 674v-674h-46v634h-309v-634h-46v674h401z" />
    <glyph glyph-name="Rho" unicode="&#x3a1;" horiz-adv-x="460" 
d="M76 0v666q65 13 129 13q110 0 163 -55q50 -48 50 -133q0 -78 -42 -131q-62 -77 -185 -77q-45 0 -69 6v-289h-46zM122 632v-302q25 -8 70 -8q83 0 131 43t48 123q0 72 -44.5 111.5t-123.5 39.5q-53 0 -81 -7z" />
    <glyph glyph-name="Sigma" unicode="&#x3a3;" horiz-adv-x="495" 
d="M83 44v-4h385v-40h-447v32l237 303l-223 306v33h400v-39h-339v-4l214 -294z" />
    <glyph glyph-name="Tau" unicode="&#x3a4;" horiz-adv-x="425" 
d="M190 0v635h-192v39h429v-39h-191v-635h-46z" />
    <glyph glyph-name="Upsilon" unicode="&#x3a5;" horiz-adv-x="516" 
d="M11 644l10 36q25 -3 60.5 -24.5t60.5 -50.5q96 -105 115 -278h2q25 164 126 272q60 64 118 81l10 -35q-61 -32 -123.5 -110t-94.5 -212q-17 -64 -17 -131v-192h-46v193q0 74 -13 131q-30 141 -88.5 219.5t-119.5 100.5z" />
    <glyph glyph-name="Phi" unicode="&#x3a6;" horiz-adv-x="610" 
d="M327 31v-51h-46v51q-44 3 -85.5 21.5t-78 53.5t-58.5 94t-22 134q0 74 22.5 134.5t58.5 97.5t78.5 57.5t86.5 22.5v48h46v-48q100 -6 172 -88t72 -221q0 -145 -73 -223.5t-173 -82.5zM282 66v544q-76 -3 -136 -77t-60 -197q0 -116 56.5 -187.5t139.5 -82.5zM328 610v-544
q83 6 140 79.5t57 192.5q0 122 -58.5 194t-138.5 78z" />
    <glyph glyph-name="Chi" unicode="&#x3a7;" horiz-adv-x="496" 
d="M468 0h-53l-93 171q-48 80 -75 134h-3q-37 -73 -73 -135l-90 -170h-52l193 342l-186 332h52l98 -179q42 -73 62 -112h2q18 38 62 113l100 178h52l-191 -327z" />
    <glyph glyph-name="Psi" unicode="&#x3a8;" horiz-adv-x="599" 
d="M549 674v-196q0 -116 -60 -182.5t-167 -74.5v-221h-46v221q-100 6 -163 65.5t-63 176.5v211h46v-202q0 -200 180 -212v414h46v-414q80 5 130.5 60t50.5 160v194h46z" />
    <glyph glyph-name="uni03A9" unicode="&#x3a9;" horiz-adv-x="607" 
d="M437 44v-3h139v-41h-204v34q64 48 104.5 136t40.5 185q0 49 -13 98.5t-37.5 93t-66.5 71t-95 27.5q-69 0 -120 -45.5t-73 -109.5t-22 -134q0 -93 42 -185t103 -137v-34h-204v41h138v3q-55 53 -91 135t-36 178q0 150 76 238.5t191 88.5q113 0 184.5 -88t71.5 -234
q0 -101 -36 -183.5t-92 -134.5z" />
    <glyph glyph-name="Iotadieresis" unicode="&#x3aa;" horiz-adv-x="198" 
d="M18 710h-1q-15 0 -25.5 11t-10.5 26t10.5 26t26.5 11q15 0 25 -10.5t10 -26.5q0 -15 -10 -26t-25 -11zM180 710h-1q-15 0 -25 11t-10 26t10.5 26t26.5 11q15 0 25 -10.5t10 -26.5q0 -15 -10 -26t-26 -11zM76 674h46v-674h-46v674z" />
    <glyph glyph-name="Upsilondieresis" unicode="&#x3ab;" horiz-adv-x="516" 
d="M181 697h-1q-15 0 -25 11.5t-10 26.5t10.5 26t26.5 11q15 0 25 -11t10 -26q0 -16 -10 -27t-26 -11zM344 697h-1q-15 0 -25.5 11.5t-10.5 26.5t10.5 26t26.5 11q15 0 25 -11t10 -26t-10 -26.5t-25 -11.5zM11 644l10 36q25 -3 60.5 -24.5t60.5 -50.5q96 -105 115 -278h2
q25 164 126 272q60 64 118 81l10 -35q-61 -32 -123.5 -110t-94.5 -212q-17 -64 -17 -131v-192h-46v193q0 74 -13 131q-30 141 -88.5 219.5t-119.5 100.5z" />
    <glyph glyph-name="alphatonos" unicode="&#x3ac;" horiz-adv-x="482" 
d="M259 675h56l-75 -136h-31zM380 480h38q-4 -28 -8 -144t-3 -229q0 -40 9.5 -59t33.5 -20l-6 -38h-15q-27 0 -44.5 24t-17.5 78h-4q-20 -43 -58 -72.5t-91 -29.5q-78 0 -126.5 65t-48.5 176q0 115 57 187t134 72q102 0 139 -99h4q1 41 7 89zM86 229v-1q0 -80 36.5 -139.5
t100.5 -59.5q46 0 84 40.5t51 97.5q6 27 6 81q0 43 -3 65q-9 55 -45 96.5t-84 41.5q-64 0 -105 -63t-41 -159z" />
    <glyph glyph-name="epsilontonos" unicode="&#x3ad;" horiz-adv-x="384" 
d="M239 675h56l-75 -136h-32zM160 258v4q-95 21 -95 103q0 50 45 87.5t121 37.5q79 0 119 -32l-14 -34q-13 10 -44 19t-63 9q-53 0 -85 -24.5t-32 -62.5q0 -42 39.5 -64t98.5 -22h50v-39h-54q-71 0 -115 -26t-44 -78q0 -50 39.5 -78.5t98.5 -28.5q36 0 73.5 10.5t56.5 22.5
l11 -35q-20 -15 -61 -26t-85 -11q-74 0 -127 35.5t-53 108.5q0 47 33.5 81.5t86.5 42.5z" />
    <glyph glyph-name="etatonos" unicode="&#x3ae;" horiz-adv-x="487" 
d="M276 675h56l-75 -136h-32zM116 402h2q19 39 58 63.5t89 24.5q17 0 34.5 -4t39 -16.5t38 -32t27.5 -55t11 -81.5v-325q0 -129 11 -172h-45q-12 40 -12 160v329q0 157 -117 157q-44 0 -79 -29.5t-47 -77.5q-6 -18 -6 -42v-301h-46v366q0 75 -12 114h41q13 -26 13 -78z" />
    <glyph glyph-name="iotatonos" unicode="&#x3af;" horiz-adv-x="195" 
d="M123 675h56l-75 -136h-32zM120 480v-390q0 -35 9 -48.5t36 -12.5l-5 -37q-7 -2 -21 -2q-65 0 -65 96v394h46z" />
    <glyph glyph-name="upsilondieresistonos" unicode="&#x3b0;" horiz-adv-x="455" 
d="M328 480h45q13 -27 24 -82t11 -112q0 -58 -8 -106.5t-27.5 -93.5t-57.5 -70.5t-91 -25.5q-69 0 -112 43.5t-43 125.5v155q0 135 -10 166h43q13 -16 13 -90v-218q0 -73 33 -107.5t79 -34.5q66 0 100.5 64t34.5 184q0 64 -11 120.5t-23 81.5zM218 679h50l-42 -144h-27z
M129 564h-1q-15 0 -25 10t-10 25q0 14 10.5 24.5t25.5 10.5q14 0 23.5 -10t9.5 -25q0 -14 -9.5 -24.5t-23.5 -10.5zM326 564h-1q-15 0 -24.5 10t-9.5 25q0 14 10.5 24.5t24.5 10.5q15 0 24.5 -10t9.5 -25t-9.5 -25t-24.5 -10z" />
    <glyph glyph-name="alpha" unicode="&#x3b1;" horiz-adv-x="482" 
d="M380 480h38q-4 -28 -8 -144t-3 -229q0 -40 9.5 -59t33.5 -20l-6 -38h-15q-27 0 -44.5 24t-17.5 78h-4q-20 -43 -58 -72.5t-91 -29.5q-78 0 -126.5 65t-48.5 176q0 115 57 187t134 72q102 0 139 -99h4q1 41 7 89zM86 229v-1q0 -80 36.5 -139.5t100.5 -59.5q46 0 84 40.5
t51 97.5q6 27 6 81q0 43 -3 65q-9 55 -45 96.5t-84 41.5q-64 0 -105 -63t-41 -159z" />
    <glyph glyph-name="beta" unicode="&#x3b2;" horiz-adv-x="492" 
d="M121 52h-2v-76q0 -129 10 -172h-44q-12 40 -12 154v500q0 146 65 211q45 46 115 46q61 0 104 -47.5t43 -118.5q0 -62 -27.5 -102.5t-64.5 -57.5v-4q61 -13 103 -60.5t42 -133.5q0 -95 -56.5 -148t-131.5 -53q-90 0 -144 62zM119 460v-345q20 -36 58 -61t86 -25
q62 0 102.5 45.5t40.5 112.5q0 81 -45.5 125t-121.5 46q-9 1 -25 1v39q11 0 17 1q57 4 89.5 44.5t32.5 99.5q0 56 -29.5 94.5t-77.5 38.5q-64 0 -95.5 -57t-31.5 -159z" />
    <glyph glyph-name="gamma" unicode="&#x3b3;" horiz-adv-x="393" 
d="M216 -196h-46q7 192 -20 301q-25 104 -69.5 209t-81.5 166h52q38 -65 82.5 -179t65.5 -218h3q122 231 122 369v28h44q2 -14 2 -30q0 -152 -151 -416q-5 -8 -5 -24q4 -82 2 -206z" />
    <glyph glyph-name="delta" unicode="&#x3b4;" horiz-adv-x="477" 
d="M404 668l-18 -34q-58 42 -124 42q-41 0 -63.5 -16t-22.5 -39q0 -21 15.5 -39.5t55.5 -54.5l75 -70q115 -97 115 -225q0 -108 -56 -175t-142 -67q-82 0 -141 63.5t-59 175.5q0 87 49 153.5t128 107.5v5l-21 17q-64 59 -64 105q0 38 35.5 68t102.5 30q82 0 135 -47z
M294 425l-48 40q-160 -86 -160 -237q0 -94 47.5 -146.5t108.5 -52.5q64 0 106 53.5t42 144.5q0 116 -96 198z" />
    <glyph glyph-name="epsilon" unicode="&#x3b5;" horiz-adv-x="384" 
d="M160 259v4q-46 10 -70.5 37t-24.5 65q0 50 45 87.5t121 37.5q79 0 119 -31l-14 -35q-13 10 -44 19t-63 9q-53 0 -85 -24.5t-32 -62.5q0 -42 39.5 -64t98.5 -22h50v-39h-54q-71 0 -115 -26t-44 -78q0 -50 39.5 -78.5t98.5 -28.5q36 0 74 10.5t56 23.5l11 -36
q-20 -15 -61 -26t-85 -11q-74 0 -127 35.5t-53 108.5q0 47 33.5 82t86.5 43z" />
    <glyph glyph-name="zeta" unicode="&#x3b6;" horiz-adv-x="360" 
d="M299 -133l-35 9q14 21 25.5 58t12.5 56q-59 9 -110 26q-152 50 -152 218q0 112 68 231t181 196v3h-77q-81 0 -110 8l7 34q29 -3 103 -3h139l9 -36q-117 -67 -195.5 -188t-78.5 -237q0 -86 34.5 -128t99.5 -63q51 -17 124 -26q8 -2 8 -10q0 -34 -17 -79t-36 -69z" />
    <glyph glyph-name="eta" unicode="&#x3b7;" horiz-adv-x="487" 
d="M116 402h2q19 39 58 63.5t89 24.5q17 0 34.5 -4t39 -16.5t38 -32t27.5 -55t11 -81.5v-325q0 -129 11 -172h-45q-12 40 -12 160v329q0 157 -117 157q-44 0 -79 -29.5t-47 -77.5q-6 -18 -6 -42v-301h-46v366q0 75 -12 114h41q13 -26 13 -78z" />
    <glyph glyph-name="theta" unicode="&#x3b8;" horiz-adv-x="464" 
d="M233 -10h-1q-89 0 -141 90.5t-52 278.5q0 164 53.5 260t143.5 96q92 0 140.5 -91.5t48.5 -264.5q0 -369 -192 -369zM85 384h294q0 127 -38 209.5t-110 82.5q-65 0 -105.5 -86t-40.5 -206zM379 346h-294q1 -149 42 -233t108 -84q71 0 107.5 86t36.5 231z" />
    <glyph glyph-name="iota" unicode="&#x3b9;" horiz-adv-x="195" 
d="M120 480v-390q0 -35 9 -48.5t36 -12.5l-5 -37q-7 -2 -21 -2q-65 0 -65 96v394h46z" />
    <glyph glyph-name="kappa" unicode="&#x3ba;" horiz-adv-x="422" 
d="M179 259v-3q52 -13 150 -142l85 -114h-54l-81 109q-45 56 -80.5 87t-68.5 31h-9v-227h-46v382q0 71 -11 98h44q13 -18 13 -79v-143h4l119 118.5t106 103.5h56v-3z" />
    <glyph glyph-name="lambda" unicode="&#x3bb;" horiz-adv-x="402" 
d="M335 0l-102 304q-14 43 -32 112h-4q-7 -31 -33 -108l-107 -308h-47l158 448q6 12 6 23q0 14 -5 26q-30 91 -58.5 135t-71.5 44q-7 0 -12 -1l5 38q12 2 22 2q55 0 88 -50.5t75 -169.5l166 -495h-48z" />
    <glyph glyph-name="uni03BC" unicode="&#x3bc;" horiz-adv-x="483" 
d="M367 71h-2q-18 -31 -52.5 -55.5t-79.5 -24.5q-82 0 -114 61v-76q0 -129 11 -172h-43q-13 39 -13 160v516h46v-303q0 -63 27 -104.5t87 -41.5q46 0 77.5 28t45.5 65q7 26 7 50v306h46v-374q0 -41 9 -59t34 -19l-6 -37q-9 -1 -16 -1q-25 0 -43 19t-21 62z" />
    <glyph glyph-name="nu" unicode="&#x3bd;" horiz-adv-x="399" 
d="M8 480h48l97 -300q8 -23 22 -68t18 -57h2q0 1 12.5 26.5l16.5 33.5t16.5 35.5l18.5 41t17 41t17 44.5t14 42t12 43t7 38.5t3 36.5q0 30 -1 43h43q3 -12 3 -32q0 -60 -28 -145.5t-57 -146t-79 -156.5h-43z" />
    <glyph glyph-name="xi" unicode="&#x3be;" horiz-adv-x="377" 
d="M314 427v-38h-24q-97 -2 -150 -50t-53 -120q0 -126 153 -170q47 -13 123 -24q8 0 8 -10q0 -32 -17 -79t-35 -69l-35 9q13 21 25 58.5t13 55.5q-46 8 -81.5 17t-75.5 26.5t-65.5 40.5t-42.5 59.5t-17 82.5q0 68 42 120t107 72v5q-52 17 -79.5 54t-27.5 87q0 65 48.5 113
t131.5 48q67 0 100 -25l-14 -36q-37 22 -92 22q-62 0 -94.5 -36.5t-32.5 -84.5q0 -57 40 -91t100 -36q13 -1 45 -1z" />
    <glyph glyph-name="omicron" unicode="&#x3bf;" horiz-adv-x="478" 
d="M236 -10h-1q-84 0 -140 66t-56 181q0 120 59 186.5t144 66.5q87 0 142 -66.5t55 -180.5q0 -124 -61 -188.5t-142 -64.5zM237 29h1q69 0 111.5 63.5t42.5 149.5q0 47 -13.5 92t-49.5 81t-89 36q-52 0 -88 -34t-51 -80t-15 -98q0 -84 42 -147t109 -63z" />
    <glyph glyph-name="pi" unicode="&#x3c0;" horiz-adv-x="476" 
d="M444 441h-64v-309q0 -93 13 -132h-45q-14 28 -14 126v315h-169q-3 -111 -23.5 -246.5t-45.5 -194.5h-43q26 67 45 195.5t23 245.5q-56 0 -92 -9l-10 29q34 19 109 19h323z" />
    <glyph glyph-name="rho" unicode="&#x3c1;" horiz-adv-x="492" 
d="M117 65h-2v-89q0 -126 7 -172h-43q-10 38 -10 159v257q0 132 50 198q24 32 62 52t83 20q86 0 137.5 -65t51.5 -177q0 -124 -57 -191t-140 -67q-45 0 -82 20t-57 55zM115 243v-62q0 -19 3 -39q14 -54 52 -83.5t83 -29.5q72 0 112.5 62t40.5 156q0 84 -38.5 144t-108.5 60
q-57 0 -100.5 -52t-43.5 -156z" />
    <glyph glyph-name="uni03C2" unicode="&#x3c2;" horiz-adv-x="357" 
d="M350 472l-14 -36q-33 15 -76 15q-79 0 -126.5 -62t-47.5 -145q0 -76 34 -123t104 -72q47 -14 111 -25q9 -3 9 -13q0 -32 -16.5 -76.5t-34.5 -67.5l-36 9q14 20 26 57t14 56q-57 11 -100 24q-73 25 -115.5 81.5t-42.5 143.5q0 102 62 177t164 75q55 0 85 -18z" />
    <glyph glyph-name="sigma" unicode="&#x3c3;" horiz-adv-x="475" 
d="M339 454l-1 -3q45 -32 69 -87.5t24 -118.5q0 -124 -60.5 -189.5t-137.5 -65.5q-82 0 -138 66.5t-56 180.5q0 121 59 187t150 66h75h33q86 0 106 1l-2 -39q-37 -2 -121 2zM235 29h1q64 0 106 64.5t42 149.5q0 34 -8.5 68.5t-25 67t-47 52.5t-68.5 20q-50 0 -85 -34
t-49.5 -80.5t-14.5 -97.5q0 -84 42 -147t107 -63z" />
    <glyph glyph-name="tau" unicode="&#x3c4;" horiz-adv-x="353" 
d="M269 31l-2 -35q-11 -6 -32 -6q-85 0 -85 132v319h-57q-53 0 -87 -10l-8 28q25 21 94 21h256l-9 -39h-143v-325q0 -86 53 -86q14 0 20 1z" />
    <glyph glyph-name="upsilon" unicode="&#x3c5;" horiz-adv-x="455" 
d="M328 480h45q13 -27 24 -82t11 -112q0 -58 -8 -106.5t-27.5 -93.5t-57.5 -70.5t-91 -25.5q-69 0 -112 43.5t-43 125.5v155q0 135 -10 166h43q13 -16 13 -90v-218q0 -73 33 -107.5t79 -34.5q66 0 100.5 64t34.5 184q0 64 -11 120.5t-23 81.5z" />
    <glyph glyph-name="phi" unicode="&#x3c6;" horiz-adv-x="551" 
d="M181 491l21 -27q-116 -82 -116 -221q0 -83 42.5 -141.5t124.5 -69.5v334q0 61 25 90.5t67 29.5q62 0 114 -64.5t52 -168.5q0 -117 -61 -183.5t-151 -75.5v-190h-46v190q-40 3 -76 18t-68 43.5t-51 77t-19 110.5q0 89 43.5 152.5t98.5 95.5zM299 367v-335q78 9 121.5 69.5
t43.5 149.5q0 81 -37 138.5t-82 57.5q-46 0 -46 -80z" />
    <glyph glyph-name="chi" unicode="&#x3c7;" horiz-adv-x="392" 
d="M22 480h50l126 -283h3q24 58 52 115l76 168h48l-156 -323l162 -346l-42 -14l-146 320h-2q-13 -38 -47 -116l-91 -204l-41 14l158 346z" />
    <glyph glyph-name="psi" unicode="&#x3c8;" horiz-adv-x="557" 
d="M264 -196v186q-42 3 -75 15t-62 37t-44.5 71.5t-15.5 112.5v149q0 77 -8 105h43q11 -20 11 -90v-154q0 -198 151 -209v572h46v-572q69 5 111.5 75t42.5 183q0 69 -11 123.5t-23 71.5h46q14 -23 24.5 -75t10.5 -113q0 -126 -49.5 -211t-151.5 -91v-186h-46z" />
    <glyph glyph-name="omega" unicode="&#x3c9;" horiz-adv-x="612" 
d="M328 345l-1 -196q0 -47 26 -83.5t65 -36.5q43 0 75 57t32 159q0 76 -23.5 140.5t-57.5 98.5v2h46q35 -28 58.5 -93t23.5 -146q0 -124 -46 -190.5t-109 -66.5q-81 0 -111 85h-3q-30 -85 -115 -85q-59 0 -104 61.5t-45 188.5q0 79 25 147.5t58 98.5h45v-2
q-35 -36 -57.5 -99.5t-22.5 -145.5q0 -105 33 -157.5t76 -52.5q37 0 63 36t25 83l-1 197h45z" />
    <glyph glyph-name="iotadieresis" unicode="&#x3ca;" horiz-adv-x="195" 
d="M18 562h-1q-15 0 -25.5 11t-10.5 26t10.5 26t26.5 11q15 0 25.5 -11t10.5 -26t-10 -26t-26 -11zM180 562h-1q-15 0 -25 11t-10 26t10.5 26t26.5 11q15 0 25 -11t10 -26t-10 -26t-26 -11zM120 480v-390q0 -35 9 -48.5t36 -12.5l-5 -37q-7 -2 -21 -2q-65 0 -65 96v394h46z
" />
    <glyph glyph-name="upsilondieresis" unicode="&#x3cb;" horiz-adv-x="455" 
d="M141 562h-1q-15 0 -25.5 11t-10.5 26t10.5 26t26.5 11q15 0 25.5 -11t10.5 -26t-10 -26t-26 -11zM303 562h-1q-15 0 -25 11t-10 26t10.5 26t26.5 11q15 0 25 -11t10 -26t-10 -26t-26 -11zM328 480h45q13 -27 24 -82t11 -112q0 -58 -8 -106.5t-27.5 -93.5t-57.5 -70.5
t-91 -25.5q-69 0 -112 43.5t-43 125.5v155q0 135 -10 166h43q13 -16 13 -90v-218q0 -73 33 -107.5t79 -34.5q66 0 100.5 64t34.5 184q0 64 -11 120.5t-23 81.5z" />
    <glyph glyph-name="omicrontonos" unicode="&#x3cc;" horiz-adv-x="478" 
d="M261 675h56l-75 -136h-32zM236 -10h-1q-84 0 -140 66t-56 181q0 120 59 186.5t144 66.5q87 0 142 -66.5t55 -180.5q0 -124 -61 -188.5t-142 -64.5zM237 29h1q69 0 111.5 63.5t42.5 149.5q0 47 -13.5 92t-49.5 81t-89 36q-52 0 -88 -34t-51 -80t-15 -98q0 -84 42 -147
t109 -63z" />
    <glyph glyph-name="upsilontonos" unicode="&#x3cd;" horiz-adv-x="455" 
d="M246 675h56l-75 -136h-32zM328 480h45q13 -27 24 -82t11 -112q0 -58 -8 -106.5t-27.5 -93.5t-57.5 -70.5t-91 -25.5q-69 0 -112 43.5t-43 125.5v155q0 135 -10 166h43q13 -16 13 -90v-218q0 -73 33 -107.5t79 -34.5q66 0 100.5 64t34.5 184q0 64 -11 120.5t-23 81.5z" />
    <glyph glyph-name="omegatonos" unicode="&#x3ce;" horiz-adv-x="612" 
d="M329 675h56l-75 -136h-31zM328 345l-1 -196q0 -47 26 -83.5t65 -36.5q43 0 75 57t32 159q0 76 -23.5 140.5t-57.5 98.5v2h46q35 -28 58.5 -93t23.5 -146q0 -124 -46 -190.5t-109 -66.5q-81 0 -111 85h-3q-30 -85 -115 -85q-59 0 -104 61.5t-45 188.5q0 79 25 147.5
t58 98.5h45v-2q-35 -36 -57.5 -99.5t-22.5 -145.5q0 -105 33 -157.5t76 -52.5q37 0 63 36t25 83l-1 197h45z" />
    <glyph glyph-name="afii10023" unicode="&#x401;" horiz-adv-x="425" 
d="M364 375v-40h-242v-295h272v-40h-318v674h303v-40h-257v-259h242zM143 727h-1q-16 0 -25.5 11t-9.5 28q0 16 10.5 27.5t25.5 11.5q16 0 26 -11.5t10 -27.5q0 -17 -9.5 -28t-26.5 -11zM307 727h-1q-15 0 -24.5 11t-9.5 28q0 16 10.5 27.5t25.5 11.5q16 0 26 -11.5
t10 -27.5q0 -17 -10 -28t-27 -11z" />
    <glyph glyph-name="afii10051" unicode="&#x402;" horiz-adv-x="577" 
d="M-2 674h441v-40h-221v-232h2q62 42 127 42q94 0 148 -85q43 -70 43 -182q0 -137 -61 -219q-49 -67 -133 -87l-11 33q71 23 112 83q46 70 46 187q0 100 -35 159q-41 70 -119 70q-64 0 -119 -42v-361h-47v634h-173v40z" />
    <glyph glyph-name="afii10052" unicode="&#x403;" horiz-adv-x="373" 
d="M76 674h300v-40h-254v-634h-46v674zM269 820h71l-129 -110h-41z" />
    <glyph glyph-name="afii10053" unicode="&#x404;" horiz-adv-x="507" 
d="M472 657l-15 -37q-46 23 -110 23q-78 0 -137.5 -40.5t-89 -102t-34.5 -134.5h324v-38h-324q0 -75 28 -141.5t87.5 -111t138.5 -44.5q67 0 127 25l11 -36q-58 -29 -147 -29q-130 0 -212 96.5t-82 251.5q0 142 84.5 243t225.5 101q73 0 125 -26z" />
    <glyph glyph-name="afii10054" unicode="&#x405;" horiz-adv-x="427" 
d="M39 32l17 38q58 -39 129 -39q70 0 111 38t41 101q0 55 -29.5 92t-93.5 66q-159 66 -159 186q0 74 52 121.5t132 47.5t120 -30l-18 -39q-42 30 -106 30q-67 0 -100.5 -36.5t-33.5 -83.5q0 -55 30 -88t98 -65q80 -39 117 -84t37 -112q0 -79 -53.5 -131.5t-146.5 -52.5
q-40 0 -81 12t-63 29z" />
    <glyph glyph-name="afii10055" unicode="&#x406;" horiz-adv-x="198" 
d="M76 674h46v-674h-46v674z" />
    <glyph glyph-name="afii10056" unicode="&#x407;" horiz-adv-x="198" 
d="M76 674h46v-674h-46v674zM18 727h-1q-16 0 -25.5 11t-9.5 28q0 16 10.5 27.5t25.5 11.5q16 0 26 -11.5t10 -27.5q0 -17 -9.5 -28t-26.5 -11zM182 727h-1q-15 0 -24.5 11t-9.5 28q0 16 10.5 27.5t25.5 11.5q16 0 26 -11.5t10 -27.5q0 -17 -10 -28t-27 -11z" />
    <glyph glyph-name="afii10057" unicode="&#x408;" horiz-adv-x="315" 
d="M200 206v468h46v-476q0 -208 -168 -208q-38 0 -70 12l9 39q26 -11 59 -11q64 0 94 38t30 138z" />
    <glyph glyph-name="afii10058" unicode="&#x409;" horiz-adv-x="766" 
d="M111 674h305v-267q38 4 73 4q103 0 170.5 -51.5t67.5 -151.5q0 -84 -49 -140q-66 -73 -200 -73q-40 0 -109 6v633h-214v-241q0 -60 -0.5 -91.5t-5 -84.5t-12.5 -84t-24.5 -63.5t-40.5 -49.5q-34 -26 -71 -26l-8 37q32 6 58 29q37 34 48.5 116.5t11.5 210.5v287zM416 367
v-329q27 -4 70 -4q85 0 139 45.5t54 126.5q0 82 -55 123.5t-140 41.5q-39 0 -68 -4z" />
    <glyph glyph-name="afii10059" unicode="&#x40a;" horiz-adv-x="794" 
d="M76 674h46v-284h275v284h46v-278q25 4 84 4q99 0 163 -49t64 -144q0 -86 -49 -140q-64 -72 -198 -72q-44 0 -110 6v350h-275v-351h-46v674zM443 357v-318q25 -5 70 -5q85 0 139 44t54 127q0 78 -53.5 117t-136.5 39q-35 0 -73 -4z" />
    <glyph glyph-name="afii10060" unicode="&#x40b;" horiz-adv-x="588" 
d="M-2 674h431v-40h-214v-234h2q70 46 141 46q68 0 110 -40q50 -52 50 -144v-262h-47v253q0 79 -33 118q-33 36 -89 36q-71 0 -134 -46v-361h-46v634h-171v40z" />
    <glyph glyph-name="afii10061" unicode="&#x40c;" horiz-adv-x="458" 
d="M76 674h46v-312h29l231 312h52l-238 -316q80 -8 120 -52.5t68 -125.5q8 -22 19.5 -60t22 -67t22.5 -53h-49q-16 33 -59 169q-26 79 -67.5 117.5t-127.5 38.5h-23v-325h-46v674zM299 815h71l-129 -110h-41z" />
    <glyph glyph-name="afii10062" unicode="&#x40e;" horiz-adv-x="441" 
d="M6 674h52l136 -308q23 -54 46 -116h2l40 118l109 306h48l-126 -329q-2 -6 -14.5 -40l-18 -48.5l-18 -45.5t-21 -50t-20.5 -43t-24 -42q-57 -86 -131 -86q-21 0 -30 3l5 38q4 -1 19 -1q85 0 148 152q9 19 -2 44zM109 798h43q4 -17 9 -28t20.5 -21.5t40.5 -10.5q58 0 67 60
h44q-9 -94 -113 -94q-102 0 -111 94z" />
    <glyph glyph-name="afii10145" unicode="&#x40f;" horiz-adv-x="556" 
d="M76 674h46v-634h313v634h47v-674h-178l-6 -159h-39l-7 159h-176v674z" />
    <glyph glyph-name="afii10017" unicode="&#x410;" horiz-adv-x="536" 
d="M388 235h-237l-74 -235h-47l218 674h45l218 -674h-47zM164 274h211l-70 214q-19 58 -34 130h-3q-11 -53 -33 -128z" />
    <glyph glyph-name="afii10018" unicode="&#x411;" horiz-adv-x="472" 
d="M76 674h310v-40h-264v-227q38 4 73 4q96 0 158 -44q80 -53 80 -159q0 -87 -49 -141q-65 -72 -199 -72q-40 0 -109 6v673zM122 367v-328q25 -5 71 -5q102 0 154 60q38 44 38 112q0 82 -59 126q-52 39 -136 39q-39 0 -68 -4z" />
    <glyph glyph-name="afii10019" unicode="&#x412;" horiz-adv-x="465" 
d="M76 1v664q59 14 122 14q111 0 164 -53q41 -43 41 -111q0 -52 -31.5 -92.5t-82.5 -58.5v-2q55 -13 96.5 -57t41.5 -117q0 -78 -49 -130q-59 -63 -194 -63q-39 0 -108 6zM122 633v-254h81q67 0 109.5 37.5t42.5 95.5q0 127 -160 127q-47 0 -73 -6zM122 341v-301
q21 -5 71 -5q82 0 134 37t52 115q0 76 -53 115t-134 39h-70z" />
    <glyph glyph-name="afii10020" unicode="&#x413;" horiz-adv-x="373" 
d="M76 674h300v-40h-254v-634h-46v674z" />
    <glyph glyph-name="afii10021" unicode="&#x414;" horiz-adv-x="546" 
d="M152 674h304v-634h50l-4 -191h-39l-5 151h-400l-5 -151h-38l-5 191h46q48 99 65 162q31 112 31 314v158zM196 634v-139q0 -186 -32 -304q-19 -68 -60 -151h306v594h-214z" />
    <glyph glyph-name="afii10022" unicode="&#x415;" horiz-adv-x="425" 
d="M364 375v-40h-242v-295h272v-40h-318v674h303v-40h-257v-259h242z" />
    <glyph glyph-name="afii10024" unicode="&#x416;" horiz-adv-x="685" 
d="M27 674h52l212 -313h29v313h45v-313h31l211 313h52l-222 -316q73 -8 111 -51.5t64 -125.5q6 -18 17 -57t20.5 -68.5t21.5 -55.5h-48q-14 26 -33 93.5t-21 73.5q-28 84 -63 121.5t-114 37.5h-27v-326h-45v326h-27q-42 0 -71.5 -10.5t-49.5 -34t-32 -48t-26 -66.5
q0 -2 -19.5 -71.5t-32.5 -95.5h-47q12 26 21.5 56t20 68t16.5 57q27 82 65 125.5t110 51.5z" />
    <glyph glyph-name="afii10025" unicode="&#x417;" horiz-adv-x="433" 
d="M66 601l-18 34q66 49 151 49q74 0 121 -42.5t47 -117.5q0 -59 -38.5 -105.5t-97.5 -61.5v-2q74 -8 117.5 -54.5t43.5 -119.5q0 -93 -59 -142t-154 -49q-89 0 -150 40l18 37q62 -38 134 -38q77 0 120.5 42t43.5 109q0 78 -57 116t-139 38h-25v38h23q70 0 121.5 44.5
t51.5 103.5t-35.5 92t-93.5 33q-64 0 -125 -44z" />
    <glyph glyph-name="afii10026" unicode="&#x418;" horiz-adv-x="577" 
d="M76 674h44v-324q0 -182 -7 -284l2 -1q36 82 118 225l224 384h44v-674h-45v324q0 181 7 285l-3 1q-9 -22 -19.5 -44t-24.5 -48.5l-22 -41l-27 -48l-25 -43.5l-223 -385h-43v674z" />
    <glyph glyph-name="afii10027" unicode="&#x419;" horiz-adv-x="577" 
d="M76 674h44v-324q0 -182 -7 -284l2 -1q36 82 118 225l224 384h44v-674h-45v324q0 181 7 285l-3 1q-9 -22 -19.5 -44t-24.5 -48.5l-22 -41l-27 -48l-25 -43.5l-223 -385h-43v674zM176 800h43q4 -17 9 -28t20.5 -21.5t40.5 -10.5q58 0 67 60h44q-9 -94 -113 -94
q-102 0 -111 94z" />
    <glyph glyph-name="afii10028" unicode="&#x41a;" horiz-adv-x="458" 
d="M76 674h46v-312h29l231 312h52l-238 -316q80 -8 120 -52.5t68 -125.5q8 -22 19.5 -60t22 -67t22.5 -53h-49q-16 33 -59 169q-26 79 -67.5 117.5t-127.5 38.5h-23v-325h-46v674z" />
    <glyph glyph-name="afii10029" unicode="&#x41b;" horiz-adv-x="513" 
d="M109 674h328v-674h-47v634h-236v-240q0 -77 -1.5 -116t-8.5 -100t-25 -99t-48 -59q-36 -26 -73 -26l-6 37q31 6 56 29q38 34 49.5 117t11.5 210v287z" />
    <glyph glyph-name="afii10030" unicode="&#x41c;" horiz-adv-x="717" 
d="M613 0l-18 321q-14 232 -12 296h-4q-31 -110 -81 -252l-128 -365h-30l-121 354q-58 170 -80 263h-3q-1 -121 -13 -305l-18 -312h-46l45 674h53l130 -376q53 -161 69 -222h3q15 62 69 221l132 377h57l42 -674h-46z" />
    <glyph glyph-name="afii10031" unicode="&#x41d;" horiz-adv-x="570" 
d="M76 674h46v-298h326v298h46v-674h-46v337h-326v-337h-46v674z" />
    <glyph glyph-name="afii10032" unicode="&#x41e;" horiz-adv-x="597" 
d="M304 684q112 0 184 -90.5t72 -251.5q0 -172 -76.5 -262t-189.5 -90q-111 0 -184 90.5t-73 251.5q0 166 75.5 259t191.5 93zM299 645q-72 0 -122 -48t-71 -116t-21 -148q0 -120 56.5 -212t156.5 -92q69 0 119 46t72.5 115t22.5 150q0 74 -21 141t-71 115.5t-121 48.5z" />
    <glyph glyph-name="afii10033" unicode="&#x41f;" horiz-adv-x="558" 
d="M76 674h407v-674h-46v634h-315v-634h-46v674z" />
    <glyph glyph-name="afii10034" unicode="&#x420;" horiz-adv-x="460" 
d="M76 0v666q65 13 129 13q110 0 163 -55q50 -48 50 -133q0 -78 -42 -131q-62 -77 -185 -77q-45 0 -69 6v-289h-46zM122 632v-302q25 -8 70 -8q83 0 131 43t48 123q0 72 -44.5 111.5t-123.5 39.5q-53 0 -81 -7z" />
    <glyph glyph-name="afii10035" unicode="&#x421;" horiz-adv-x="507" 
d="M465 58l13 -38q-58 -29 -155 -29q-57 0 -106.5 19.5t-90.5 59t-65 107t-24 155.5q0 163 84.5 257t220.5 94q86 0 133 -25l-15 -40q-52 25 -120 25q-115 0 -185 -80t-70 -229q0 -146 67.5 -224.5t183.5 -78.5q75 0 129 27z" />
    <glyph glyph-name="afii10036" unicode="&#x422;" horiz-adv-x="425" 
d="M190 0v635h-192v39h429v-39h-191v-635h-46z" />
    <glyph glyph-name="afii10037" unicode="&#x423;" horiz-adv-x="441" 
d="M6 674h52l136 -308q23 -54 46 -116h2l40 118l109 306h48l-126 -329q-2 -6 -14.5 -40l-18 -48.5l-18 -45.5t-21 -50t-20.5 -43t-24 -42q-57 -86 -131 -86q-21 0 -30 3l5 38q4 -1 19 -1q85 0 148 152q9 19 -2 44z" />
    <glyph glyph-name="afii10038" unicode="&#x424;" horiz-adv-x="617" 
d="M286 697h46v-59q105 -3 176.5 -78t71.5 -223q0 -80 -21.5 -139.5t-58.5 -92t-79 -49t-91 -18.5v-61h-46v61q-38 3 -71.5 12.5t-66.5 31t-56.5 53.5t-38 83t-14.5 116t15 117t39.5 85.5t57.5 56.5t67 33t70 12v59zM285 73v530q-37 -2 -70.5 -17t-63.5 -44.5t-47.5 -82.5
t-17.5 -123q0 -125 55.5 -189t143.5 -74zM331 603v-530q88 7 144 72t56 193q0 133 -57.5 197t-142.5 68z" />
    <glyph glyph-name="afii10039" unicode="&#x425;" horiz-adv-x="496" 
d="M468 0h-53l-93 171q-48 80 -75 134h-3q-37 -73 -73 -135l-90 -170h-52l193 342l-186 332h52l98 -179q42 -73 62 -112h2q18 38 62 113l100 178h52l-191 -327z" />
    <glyph glyph-name="afii10040" unicode="&#x426;" horiz-adv-x="570" 
d="M76 674h46v-634h312v634h46v-634h50l-5 -191h-39l-4 151h-406v674z" />
    <glyph glyph-name="afii10041" unicode="&#x427;" horiz-adv-x="518" 
d="M71 674h46v-227q0 -153 143 -153q78 0 136 40v340h47v-677h-47v297h-2q-67 -40 -149 -40q-24 0 -45.5 4t-46 15.5t-42 31t-29 54t-11.5 79.5v236z" />
    <glyph glyph-name="afii10042" unicode="&#x428;" horiz-adv-x="738" 
d="M76 674h45v-634h225v634h46v-634h225v634h45v-674h-586v674z" />
    <glyph glyph-name="afii10043" unicode="&#x429;" horiz-adv-x="752" 
d="M76 674h45v-634h225v634h46v-634h225v634h45v-634h50l-4 -191h-39l-4 151h-589v674z" />
    <glyph glyph-name="afii10044" unicode="&#x42a;" horiz-adv-x="553" 
d="M-2 674h210v-267q38 4 71 4q102 0 168.5 -51.5t66.5 -151.5q0 -87 -49 -141q-65 -72 -196 -72q-38 0 -107 6v633h-164v40zM208 367v-328q35 -5 68 -5q86 0 138.5 45t52.5 127q0 81 -54.5 123t-135.5 42q-38 0 -69 -4z" />
    <glyph glyph-name="afii10045" unicode="&#x42b;" horiz-adv-x="635" 
d="M76 674h46v-268q23 5 73 5q106 0 172 -51.5t66 -151.5q0 -84 -48 -140q-67 -73 -201 -73q-39 0 -108 6v673zM122 367v-328q25 -5 70 -5q86 0 139.5 45t53.5 127t-55 123.5t-140 41.5q-32 0 -68 -4zM513 674h46v-674h-46v674z" />
    <glyph glyph-name="afii10046" unicode="&#x42c;" horiz-adv-x="471" 
d="M76 674h46v-268q23 5 73 5q103 0 170.5 -51.5t67.5 -151.5q0 -84 -48 -140q-67 -73 -201 -73q-39 0 -108 6v673zM122 367v-328q25 -5 70 -5q85 0 139 45t54 127t-55 123.5t-140 41.5q-41 0 -68 -4z" />
    <glyph glyph-name="afii10047" unicode="&#x42d;" horiz-adv-x="502" 
d="M120 327v40h296q-7 115 -67 195.5t-165 80.5q-58 0 -125 -30l-15 37q71 33 139 33q70 0 124.5 -27.5t88 -75.5t51 -109.5t17.5 -131.5q0 -150 -79 -249t-206 -99q-80 0 -150 31l14 39q62 -30 130 -30q77 0 133.5 44t83 109.5t27.5 142.5h-297z" />
    <glyph glyph-name="afii10048" unicode="&#x42e;" horiz-adv-x="751" 
d="M76 674h46v-305h103q7 152 74.5 233.5t174.5 81.5q108 0 174 -89.5t66 -252.5q0 -173 -71 -262.5t-177 -89.5q-107 0 -174 88t-68 252h-102v-330h-46v674zM467 29h1q64 0 110 46t67 115t21 150q0 54 -11.5 106t-34 97.5t-61.5 73.5t-89 28q-67 0 -114 -48t-66.5 -116
t-19.5 -148q0 -76 21 -143.5t67 -114t109 -46.5z" />
    <glyph glyph-name="afii10049" unicode="&#x42f;" horiz-adv-x="466" 
d="M66 0h-49q14 29 23 56q6 17 22 76t31.5 96t39.5 63q27 27 56 34v2q-62 12 -101.5 56.5t-39.5 110.5q0 91 61 138q55 47 156 47q69 0 125 -14v-665h-46v309h-68q-72 0 -105 -37q-21 -22 -35.5 -59t-29.5 -92.5t-20 -71.5q-13 -36 -20 -49zM344 347v285q-30 8 -81 8
q-76 0 -122 -36t-46 -108q0 -69 50 -109t129 -41q54 0 70 1z" />
    <glyph glyph-name="afii10065" unicode="&#x430;" horiz-adv-x="416" 
d="M346 311v-199q0 -70 6 -112h-42l-6 64h-3q-19 -31 -53.5 -52.5t-80.5 -21.5q-61 0 -96 38.5t-35 93.5q0 84 68.5 129.5t195.5 44.5v14q0 141 -111 141q-59 0 -105 -32l-14 34q53 37 126 37q150 0 150 -179zM300 153v104q-215 5 -215 -129q0 -49 25 -74t62 -25
q48 0 80.5 27t43.5 68q4 13 4 29z" />
    <glyph glyph-name="afii10066" unicode="&#x431;" horiz-adv-x="452" 
d="M374 715l-1 -43q-22 -10 -93 -25q-106 -22 -152 -101q-37 -64 -47 -173h2q20 50 62 78.5t90 28.5q79 0 128.5 -59.5t49.5 -176.5q0 -124 -47 -189t-137 -65q-44 0 -78 20t-54.5 50.5t-33 73.5t-17 84t-4.5 86q0 165 51 260q28 52 71 80t109 42q80 21 101 29zM366 237v1
q0 34 -6.5 67t-21 65t-43 51.5t-66.5 19.5q-81 0 -115 -75q-22 -45 -22 -108q0 -46 12.5 -95.5t45.5 -92t81 -42.5t80 34t43.5 78.5t11.5 96.5z" />
    <glyph glyph-name="afii10067" unicode="&#x432;" horiz-adv-x="436" 
d="M72 -1v477q52 10 115 10q34 0 63.5 -5t59 -17t47 -37t17.5 -60q0 -41 -28 -71.5t-72 -40.5v-2q55 -8 88.5 -39t33.5 -83q0 -40 -20.5 -69t-55 -42.5t-69 -19.5t-73.5 -6q-56 0 -106 5zM116 441v-171h69q54 0 98 23.5t44 68.5q0 84 -143 84q-18 0 -68 -5zM115 232v-195
q36 -3 70 -3q29 0 54 4t51.5 13.5t42 30.5t15.5 50q0 100 -169 100h-64z" />
    <glyph glyph-name="afii10068" unicode="&#x433;" horiz-adv-x="337" 
d="M72 480h248v-40h-202v-440h-46v480z" />
    <glyph glyph-name="afii10069" unicode="&#x434;" horiz-adv-x="459" 
d="M120 480h257v-440h45l-4 -183h-39l-3 143h-324l-3 -143h-38l-4 183h34q33 51 49 99q30 91 30 207v134zM162 441v-92q0 -127 -28 -215q-12 -40 -42 -94h239v401h-169z" />
    <glyph glyph-name="afii10070" unicode="&#x435;" horiz-adv-x="438" 
d="M399 249h-314q0 -116 46 -167t118 -51q71 0 115 25l12 -36q-48 -29 -133 -29q-95 0 -149.5 67t-54.5 175q0 117 54 187t140 70q49 0 84 -22t52 -57t24 -68t7 -65q0 -20 -1 -29zM87 286h265q1 69 -30 117t-95 48q-63 0 -98 -49.5t-42 -115.5z" />
    <glyph glyph-name="afii10072" unicode="&#x436;" horiz-adv-x="586" 
d="M20 480h57l177 -219h17v219h44v-219h17l177 219h57l-190 -224q59 -5 95 -37t58 -94q34 -103 46 -125h-46q-15 26 -43 107q-23 69 -60 94t-97 25h-14v-226h-44v226h-14q-65 0 -99.5 -26t-59.5 -96q-32 -85 -42 -104h-46q9 16 16.5 35t17 48t13.5 39q24 64 59.5 96.5
t94.5 37.5z" />
    <glyph glyph-name="afii10073" unicode="&#x437;" horiz-adv-x="372" 
d="M107 232v38h21q55 0 94.5 27.5t39.5 70.5q0 39 -27 61.5t-68 22.5q-53 0 -104 -32l-16 32q57 38 127 38q54 0 95 -31t41 -91q0 -42 -31 -72.5t-76 -40.5v-1q57 -5 93.5 -39t36.5 -86q0 -68 -51.5 -103.5t-128.5 -35.5q-67 0 -126 32l17 37q55 -31 110 -31q56 0 92.5 29
t36.5 72q0 55 -44 79t-108 24h-24z" />
    <glyph glyph-name="afii10074" unicode="&#x438;" horiz-adv-x="483" 
d="M72 480h45v-227q0 -126 -5 -204h2q70 138 89 172l156 259h52v-480h-45v225q0 122 5 207h-2q-46 -95 -88 -169q-26 -40 -85 -140l-73 -123h-51v480z" />
    <glyph glyph-name="afii10075" unicode="&#x439;" horiz-adv-x="483" 
d="M72 480h45v-227q0 -126 -5 -204h2q70 138 89 172l156 259h52v-480h-45v225q0 122 5 207h-2q-46 -95 -88 -169q-26 -40 -85 -140l-73 -123h-51v480zM125 670h42q9 -77 73 -77q65 0 76 77h42q-5 -55 -36.5 -82.5t-82.5 -27.5q-104 0 -114 110z" />
    <glyph glyph-name="afii10076" unicode="&#x43a;" horiz-adv-x="415" 
d="M74 480h46v-219h19l199 219h60l-211 -223q63 -6 103.5 -42.5t69.5 -106.5q27 -75 44 -108h-49q-19 38 -42 98q-27 67 -67.5 97t-110.5 30h-15v-225h-46v480z" />
    <glyph glyph-name="afii10077" unicode="&#x43b;" horiz-adv-x="443" 
d="M99 480h272v-480h-46v441h-180v-156q0 -120 -15.5 -183.5t-62.5 -89.5q-27 -16 -60 -16l-5 37q24 3 42 16q34 23 44.5 76.5t10.5 154.5v200z" />
    <glyph glyph-name="afii10078" unicode="&#x43c;" horiz-adv-x="564" 
d="M41 0l36 480h53l100 -270q38 -106 51 -145h1q13 41 63 178l88 237h55l35 -480h-46l-13 246q-1 12 -4.5 77t-4.5 105h-3q-13 -47 -57 -161l-101 -267h-32l-96 260q-40 117 -54 168h-4q-1 -73 -8 -185l-13 -243h-46z" />
    <glyph glyph-name="afii10079" unicode="&#x43d;" horiz-adv-x="480" 
d="M72 480h46v-209h244v209h46v-480h-46v231h-244v-231h-46v480z" />
    <glyph glyph-name="afii10080" unicode="&#x43e;" horiz-adv-x="478" 
d="M242 490q87 0 142 -66.5t55 -180.5q0 -124 -61 -188.5t-143 -64.5q-84 0 -140 66t-56 181q0 120 59 186.5t144 66.5zM240 451q-52 0 -88 -34t-51 -80t-15 -98q0 -84 42 -147t110 -63q69 0 111.5 63.5t42.5 149.5q0 47 -13.5 92t-49.5 81t-89 36z" />
    <glyph glyph-name="afii10081" unicode="&#x43f;" horiz-adv-x="474" 
d="M72 480h331v-480h-47v440h-238v-440h-46v480z" />
    <glyph glyph-name="afii10082" unicode="&#x440;" horiz-adv-x="497" 
d="M74 -196v524q0 72 -4 152h44l3 -83h2q49 93 154 93q82 0 133.5 -66t51.5 -178q0 -124 -56.5 -190t-139.5 -66q-96 0 -140 80h-2v-266h-46zM120 287v-102q0 -20 3 -38q14 -57 52 -87.5t85 -30.5q73 0 112 60t39 155q0 86 -39 146.5t-109 60.5q-47 0 -86.5 -35t-51.5 -89
q-5 -33 -5 -40z" />
    <glyph glyph-name="afii10083" unicode="&#x441;" horiz-adv-x="399" 
d="M358 55l12 -36q-51 -28 -121 -28q-94 0 -152 67t-58 178q0 110 62.5 182t162.5 72q69 0 108 -26l-16 -39q-45 25 -98 25q-82 0 -127 -62t-45 -150q0 -94 47 -150.5t123 -56.5q50 0 102 24z" />
    <glyph glyph-name="afii10084" unicode="&#x442;" horiz-adv-x="351" 
d="M10 480h331v-40h-142v-440h-46v440h-143v40z" />
    <glyph glyph-name="afii10085" unicode="&#x443;" horiz-adv-x="403" 
d="M13 480h49l110 -307q17 -50 32 -106h2l33 108l103 305h49l-121 -331q-45 -129 -76.5 -198.5t-74.5 -112.5q-41 -40 -80 -56l-18 39q46 21 80 59q45 51 70 113q6 18 6 23t-5 20z" />
    <glyph glyph-name="afii10086" unicode="&#x444;" horiz-adv-x="544" 
d="M251 705h43v-215q96 -6 153.5 -70.5t57.5 -176.5q0 -116 -58 -180.5t-153 -71.5v-187h-43v187q-97 5 -154.5 69.5t-57.5 176.5q0 116 58 180.5t154 71.5v216zM251 27v426q-76 -8 -120.5 -69t-44.5 -145q0 -81 45 -142t120 -70zM294 453v-426q76 9 120 70.5t44 143.5
q0 84 -44 143.5t-120 68.5z" />
    <glyph glyph-name="afii10087" unicode="&#x445;" horiz-adv-x="392" 
d="M21 480h51l74 -116q23 -35 49 -83h2q11 20 51 83l73 116h51l-152 -235l155 -245h-52l-76 121q-10 15 -53 90h-2q-13 -26 -53 -90l-75 -121h-52l159 245z" />
    <glyph glyph-name="afii10088" unicode="&#x446;" horiz-adv-x="481" 
d="M72 480h46v-440h235v440h46v-440h45l-4 -183h-38l-4 143h-326v480z" />
    <glyph glyph-name="afii10089" unicode="&#x447;" horiz-adv-x="449" 
d="M65 480h46v-175q0 -52 23.5 -80.5t82.5 -28.5q63 0 115 36v248h46v-484h-46v197h-2q-55 -36 -123 -36q-63 0 -102.5 33.5t-39.5 104.5v185z" />
    <glyph glyph-name="afii10090" unicode="&#x448;" horiz-adv-x="648" 
d="M72 480h46v-440h183v440h46v-440h183v440h46v-480h-504v480z" />
    <glyph glyph-name="afii10091" unicode="&#x449;" horiz-adv-x="658" 
d="M72 480h46v-440h183v440h46v-440h183v440h46v-440h45l-4 -183h-39l-3 143h-503v480z" />
    <glyph glyph-name="afii10092" unicode="&#x44a;" horiz-adv-x="502" 
d="M12 480h184v-176q31 4 73 4q37 0 70.5 -8t62.5 -25.5t46.5 -48.5t17.5 -73q0 -65 -43 -105q-56 -53 -172 -53q-20 0 -101 6v440h-138v39zM196 265v-227q30 -5 64 -5q68 0 113 28.5t45 90.5t-46 90t-115 28q-28 0 -61 -5z" />
    <glyph glyph-name="afii10093" unicode="&#x44b;" horiz-adv-x="557" 
d="M72 480h46v-177q22 5 68 5q81 0 136.5 -39t55.5 -116q0 -64 -43 -104q-57 -54 -162 -54q-20 0 -101 6v479zM118 265v-227q30 -5 61 -5q63 0 107 30.5t44 88.5q0 61 -43 89.5t-107 28.5q-32 0 -62 -5zM440 480h45v-480h-45v480z" />
    <glyph glyph-name="afii10094" unicode="&#x44c;" horiz-adv-x="429" 
d="M72 480h46v-176q27 4 71 4q87 0 145.5 -36.5t58.5 -119.5q0 -63 -43 -103q-57 -54 -177 -54q-20 0 -101 6v479zM118 265v-228q36 -4 63 -4q66 0 115 28.5t49 90.5q0 63 -49 90.5t-118 27.5q-35 0 -60 -5z" />
    <glyph glyph-name="afii10095" unicode="&#x44d;" horiz-adv-x="403" 
d="M85 227v39h231q-3 78 -45 131t-123 53q-52 0 -100 -25l-13 33q53 32 121 32q98 0 157 -73q51 -66 51 -179q0 -101 -57.5 -174t-162.5 -73q-67 0 -117 29l13 36q53 -25 108 -25q75 0 121 54t48 142h-232z" />
    <glyph glyph-name="afii10096" unicode="&#x44e;" horiz-adv-x="606" 
d="M72 480h44v-215h88q7 104 57.5 164.5t125.5 60.5q79 0 129.5 -65.5t50.5 -181.5t-52 -184.5t-133 -68.5q-76 0 -125.5 62.5t-52.5 173.5h-88v-226h-44v480zM384 28h1q35 0 62 20t42.5 52.5t23 69t7.5 72.5q0 50 -13.5 96t-45 79.5t-76.5 33.5q-64 0 -100 -64.5
t-36 -149.5q0 -50 13.5 -96.5t45.5 -79.5t76 -33z" />
    <glyph glyph-name="afii10097" unicode="&#x44f;" horiz-adv-x="426" 
d="M354 476v-476h-46v216h-69q-59 0 -88 -26q-18 -14 -29.5 -37t-23.5 -62t-17 -52q-7 -20 -18 -39h-50q18 32 26 53q5 13 16 50.5t23.5 62t33.5 41.5q24 21 54 25v2q-52 7 -86.5 38t-34.5 81q0 62 49 97q49 36 141 36q61 0 119 -10zM308 254v190q-33 6 -71 6
q-37 0 -67 -7.5t-54 -30.5t-24 -60q0 -49 45 -73.5t96 -24.5h75z" />
    <glyph glyph-name="afii10071" unicode="&#x451;" horiz-adv-x="438" 
d="M156 575h-1q-16 0 -26 11t-10 27q0 15 10.5 26t26.5 11q15 0 25 -11t10 -26t-10 -26.5t-25 -11.5zM317 575h-1q-15 0 -25.5 11.5t-10.5 26.5t10.5 26t26.5 11q15 0 25.5 -11t10.5 -26q0 -16 -10 -27t-26 -11zM399 249h-314q0 -116 46 -167t118 -51q71 0 115 25l12 -36
q-48 -29 -133 -29q-95 0 -149.5 67t-54.5 175q0 117 54 187t140 70q49 0 84 -22t52 -57t24 -68t7 -65q0 -20 -1 -29zM87 286h265q1 69 -30 117t-95 48q-63 0 -98 -49.5t-42 -115.5z" />
    <glyph glyph-name="afii10099" unicode="&#x452;" horiz-adv-x="492" 
d="M13 612h77v93h46v-93h219v-40h-219v-156h2q60 74 142 74t124 -76q48 -73 48 -209q0 -185 -76 -273q-50 -57 -120 -66l-11 36q60 13 96 55q63 78 63 245q0 120 -39 189q-34 61 -97 61q-60 0 -111 -64q-21 -30 -21 -74v-314h-46v572h-77v40z" />
    <glyph glyph-name="afii10100" unicode="&#x453;" horiz-adv-x="337" 
d="M72 480h248v-40h-202v-440h-46v480zM241 685h66l-117 -136h-35z" />
    <glyph glyph-name="afii10101" unicode="&#x454;" horiz-adv-x="408" 
d="M381 459l-17 -36q-52 27 -99 27q-83 0 -128 -54t-50 -130h241v-39h-242q2 -88 50 -142t123 -54q55 0 107 25l14 -36q-51 -29 -127 -29q-103 0 -158.5 72.5t-55.5 174.5q0 107 61.5 179.5t167.5 72.5q65 0 113 -31z" />
    <glyph glyph-name="afii10102" unicode="&#x455;" horiz-adv-x="342" 
d="M38 23l17 38q51 -31 97 -31q49 0 76 25.5t27 65.5q0 36 -21 61t-69 48q-115 53 -115 133q0 54 38.5 90.5t100.5 36.5q58 0 98 -29l-19 -38q-37 28 -85 28q-41 0 -64 -23.5t-23 -57.5q0 -33 19.5 -53.5t68.5 -44.5q57 -26 87 -59t30 -85q0 -63 -42.5 -100t-109.5 -37
q-66 0 -111 32z" />
    <glyph glyph-name="afii10103" unicode="&#x456;" horiz-adv-x="195" 
d="M120 0h-46v480h46v-480zM97 653q17 0 27 -11t10 -29q0 -17 -10.5 -28.5t-27.5 -11.5q-15 0 -25 11.5t-10 28.5t10 28.5t26 11.5z" />
    <glyph glyph-name="afii10104" unicode="&#x457;" horiz-adv-x="195" 
d="M18 575h-1q-16 0 -26 11t-10 27q0 15 10.5 26t26.5 11q15 0 25 -11t10 -26t-10 -26.5t-25 -11.5zM179 575h-1q-15 0 -25.5 11.5t-10.5 26.5t10.5 26t26.5 11q15 0 25.5 -11t10.5 -26q0 -16 -10 -27t-26 -11zM120 0h-46v480h46v-480z" />
    <glyph glyph-name="afii10105" unicode="&#x458;" horiz-adv-x="200" 
d="M-34 -206l-7 37q63 7 90 42q18 23 25 61.5t7 125.5v420h46v-448q0 -71 -10 -113.5t-37 -74.5q-22 -24 -55 -36.5t-59 -13.5zM105 653q16 0 26 -11.5t10 -28.5t-10 -28.5t-28 -11.5q-15 0 -25 11.5t-10 28.5t10.5 28.5t26.5 11.5z" />
    <glyph glyph-name="afii10106" unicode="&#x459;" horiz-adv-x="683" 
d="M104 480h269v-176q27 4 70 4q88 0 146 -36.5t58 -118.5q0 -65 -42 -104q-57 -54 -178 -54q-17 0 -101 6v440h-177v-156q0 -117 -17.5 -182t-65.5 -92q-28 -15 -59 -15l-5 37q26 3 43 16q35 23 47 77.5t12 153.5v200zM372 265v-227q30 -5 64 -5q66 0 115 28.5t49 90.5
q0 63 -47.5 90.5t-114.5 27.5q-31 0 -66 -5z" />
    <glyph glyph-name="afii10107" unicode="&#x45a;" horiz-adv-x="689" 
d="M72 480h46v-191h219v191h47v-182q40 4 73 4q79 0 137.5 -36.5t58.5 -113.5q0 -66 -43 -106q-55 -51 -172 -51q-31 0 -101 5v250h-219v-250h-46v480zM383 260v-223q36 -4 66 -4q63 0 110 28t47 88q0 62 -46.5 89t-112.5 27q-31 0 -64 -5z" />
    <glyph glyph-name="afii10108" unicode="&#x45b;" horiz-adv-x="503" 
d="M13 612h77v93h46v-93h197v-40h-197v-165h2q20 35 55 58q39 25 90 25q64 0 106 -47t42 -140v-303h-46v295q0 68 -27.5 111.5t-87.5 43.5q-47 0 -81 -31t-47 -74q-6 -21 -6 -50v-295h-46v572h-77v40z" />
    <glyph glyph-name="afii10109" unicode="&#x45c;" horiz-adv-x="415" 
d="M74 480h46v-219h19l199 219h60l-211 -223q63 -6 103.5 -42.5t69.5 -106.5q27 -75 44 -108h-49q-19 38 -42 98q-27 67 -67.5 97t-110.5 30h-15v-225h-46v480zM260 685h66l-117 -136h-35z" />
    <glyph glyph-name="afii10110" unicode="&#x45e;" horiz-adv-x="403" 
d="M85 670h42q9 -77 73 -77q65 0 76 77h42q-5 -55 -36.5 -82.5t-82.5 -27.5q-104 0 -114 110zM13 480h49l110 -307q17 -50 32 -106h2l33 108l103 305h49l-121 -331q-45 -129 -76.5 -198.5t-74.5 -112.5q-41 -40 -80 -56l-18 39q46 21 80 59q45 51 70 113q6 18 6 23t-5 20z
" />
    <glyph glyph-name="afii10193" unicode="&#x45f;" horiz-adv-x="470" 
d="M72 480h46v-440h235v440h46v-480h-139l-5 -145h-37l-6 145h-140v480z" />
    <glyph glyph-name="afii10050" unicode="&#x490;" horiz-adv-x="386" 
d="M76 674h261l15 114h37l-11 -154h-256v-634h-46v674z" />
    <glyph glyph-name="afii10098" unicode="&#x491;" horiz-adv-x="337" 
d="M72 480h205l10 98h36l-5 -137h-200v-441h-46v480z" />
    <glyph glyph-name="afii10846" unicode="&#x4d9;" horiz-adv-x="328" 
d="M72 425l-11 36q48 29 133 29q94 0 148.5 -67t54.5 -175q0 -117 -53.5 -187t-139.5 -70q-49 0 -84.5 22t-52.5 57t-24 68t-7 65q0 13 2 29h313q0 116 -46 167t-118 51q-69 0 -115 -25zM349 195h-264q-1 -69 30 -117t95 -48q63 0 98 50t41 115z" />
    <glyph glyph-name="Wgrave" unicode="&#x1e80;" horiz-adv-x="766" 
d="M226 0h-43l-165 674h47l90 -374q40 -169 51 -236h3q9 62 56 237l99 373h44l92 -368q42 -172 51 -242h3q15 86 55 238l99 372h47l-183 -674h-44l-95 390q-35 141 -47 226h-2q-13 -83 -54 -227zM247 820h71l99 -110h-41z" />
    <glyph glyph-name="wgrave" unicode="&#x1e81;" horiz-adv-x="666" 
d="M217 685h66l87 -136h-35zM21 480h47l75 -267q24 -87 38 -152h3q13 58 43 151l86 268h42l82 -263q26 -82 44 -156h3q10 53 40 153l77 266h47l-148 -480h-39l-84 269q-26 82 -43 157h-2q-15 -65 -45 -159l-87 -267h-40z" />
    <glyph glyph-name="Wacute" unicode="&#x1e82;" horiz-adv-x="766" 
d="M226 0h-43l-165 674h47l90 -374q40 -169 51 -236h3q9 62 56 237l99 373h44l92 -368q42 -172 51 -242h3q15 86 55 238l99 372h47l-183 -674h-44l-95 390q-35 141 -47 226h-2q-13 -83 -54 -227zM453 820h71l-129 -110h-41z" />
    <glyph glyph-name="wacute" unicode="&#x1e83;" horiz-adv-x="666" 
d="M390 685h66l-117 -136h-35zM21 480h47l75 -267q24 -87 38 -152h3q13 58 43 151l86 268h42l82 -263q26 -82 44 -156h3q10 53 40 153l77 266h47l-148 -480h-39l-84 269q-26 82 -43 157h-2q-15 -65 -45 -159l-87 -267h-40z" />
    <glyph glyph-name="Wdieresis" unicode="&#x1e84;" horiz-adv-x="766" 
d="M226 0h-43l-165 674h47l90 -374q40 -169 51 -236h3q9 62 56 237l99 373h44l92 -368q42 -172 51 -242h3q15 86 55 238l99 372h47l-183 -674h-44l-95 390q-35 141 -47 226h-2q-13 -83 -54 -227zM301 727h-1q-16 0 -25.5 11t-9.5 28q0 16 10.5 27.5t25.5 11.5q16 0 26 -11.5
t10 -27.5q0 -17 -9.5 -28t-26.5 -11zM465 727h-1q-15 0 -24.5 11t-9.5 28q0 16 10.5 27.5t25.5 11.5q16 0 26 -11.5t10 -27.5q0 -17 -10 -28t-27 -11z" />
    <glyph glyph-name="wdieresis" unicode="&#x1e85;" horiz-adv-x="666" 
d="M253 575h-1q-16 0 -26 11t-10 27q0 15 10.5 26t26.5 11q15 0 25 -11t10 -26t-10 -26.5t-25 -11.5zM414 575h-1q-15 0 -25.5 11.5t-10.5 26.5t10.5 26t26.5 11q15 0 25.5 -11t10.5 -26q0 -16 -10 -27t-26 -11zM21 480h47l75 -267q24 -87 38 -152h3q13 58 43 151l86 268h42
l82 -263q26 -82 44 -156h3q10 53 40 153l77 266h47l-148 -480h-39l-84 269q-26 82 -43 157h-2q-15 -65 -45 -159l-87 -267h-40z" />
    <glyph glyph-name="uni1EA0" unicode="&#x1ea0;" horiz-adv-x="536" 
d="M388 235h-237l-74 -235h-47l218 674h45l218 -674h-47zM164 274h211l-70 214q-19 58 -34 130h-3q-11 -53 -33 -128zM266 -80q15 0 25.5 -11t10.5 -27q0 -15 -10.5 -26t-26.5 -11t-26.5 11t-10.5 26t11 26.5t27 11.5z" />
    <glyph glyph-name="uni1EA1" unicode="&#x1ea1;" horiz-adv-x="416" 
d="M346 311v-199q0 -70 6 -112h-42l-6 64h-3q-19 -31 -53.5 -52.5t-80.5 -21.5q-61 0 -96 38.5t-35 93.5q0 84 68.5 129.5t195.5 44.5v14q0 141 -111 141q-59 0 -105 -32l-14 34q53 37 126 37q150 0 150 -179zM300 153v104q-215 5 -215 -129q0 -49 25 -74t62 -25
q48 0 80.5 27t43.5 68q4 13 4 29zM206 -80q15 0 25.5 -11t10.5 -27q0 -15 -10.5 -26t-26.5 -11t-26.5 11t-10.5 26t11 26.5t27 11.5z" />
    <glyph glyph-name="uni1EA2" unicode="&#x1ea2;" horiz-adv-x="536" 
d="M388 235h-237l-74 -235h-47l218 674h45l218 -674h-47zM164 274h211l-70 214q-19 58 -34 130h-3q-11 -53 -33 -128zM282 710l-30 9q7 18 29 41t22 40q0 32 -34 32q-27 0 -50 -35l-23 15q27 56 82 56q30 0 50 -17.5t20 -44.5q0 -19 -10 -33t-28 -31t-28 -32z" />
    <glyph glyph-name="uni1EA3" unicode="&#x1ea3;" horiz-adv-x="416" 
d="M346 311v-199q0 -70 6 -112h-42l-6 64h-3q-19 -31 -53.5 -52.5t-80.5 -21.5q-61 0 -96 38.5t-35 93.5q0 84 68.5 129.5t195.5 44.5v14q0 141 -111 141q-59 0 -105 -32l-14 34q53 37 126 37q150 0 150 -179zM300 153v104q-215 5 -215 -129q0 -49 25 -74t62 -25
q48 0 80.5 27t43.5 68q4 13 4 29zM215 532l-30 9q5 19 30 45.5t25 45.5q0 16 -10 25.5t-26 9.5q-26 0 -48 -35l-23 14q25 58 79 58q31 0 51.5 -18.5t20.5 -47.5q0 -28 -31 -60t-38 -46z" />
    <glyph glyph-name="uni1EA4" unicode="&#x1ea4;" horiz-adv-x="536" 
d="M388 235h-237l-74 -235h-47l218 674h45l218 -674h-47zM164 274h211l-70 214q-19 58 -34 130h-3q-11 -53 -33 -128zM255 813h38l92 -103h-51l-59 69h-2l-58 -69h-49zM425 884h62l-108 -97h-37z" />
    <glyph glyph-name="uni1EA5" unicode="&#x1ea5;" horiz-adv-x="416" 
d="M346 311v-199q0 -70 6 -112h-42l-6 64h-3q-19 -31 -53.5 -52.5t-80.5 -21.5q-61 0 -96 38.5t-35 93.5q0 84 68.5 129.5t195.5 44.5v14q0 141 -111 141q-59 0 -105 -32l-14 34q53 37 126 37q150 0 150 -179zM300 153v104q-215 5 -215 -129q0 -49 25 -74t62 -25
q48 0 80.5 27t43.5 68q4 13 4 29zM182 685h37l75 -136h-44l-49 95h-3l-48 -95h-42zM335 750h57l-83 -116h-33z" />
    <glyph glyph-name="uni1EA6" unicode="&#x1ea6;" horiz-adv-x="536" 
d="M388 235h-237l-74 -235h-47l218 674h45l218 -674h-47zM164 274h211l-70 214q-19 58 -34 130h-3q-11 -53 -33 -128zM295 865h64l74 -98h-37zM250 813h38l92 -103h-52l-58 69h-2l-58 -69h-49z" />
    <glyph glyph-name="uni1EA7" unicode="&#x1ea7;" horiz-adv-x="416" 
d="M346 311v-199q0 -70 6 -112h-42l-6 64h-3q-19 -31 -53.5 -52.5t-80.5 -21.5q-61 0 -96 38.5t-35 93.5q0 84 68.5 129.5t195.5 44.5v14q0 141 -111 141q-59 0 -105 -32l-14 34q53 37 126 37q150 0 150 -179zM300 153v104q-215 5 -215 -129q0 -49 25 -74t62 -25
q48 0 80.5 27t43.5 68q4 13 4 29zM231 749h56l57 -115h-33zM179 685h37l75 -136h-44l-49 95h-3l-48 -95h-42z" />
    <glyph glyph-name="uni1EA8" unicode="&#x1ea8;" horiz-adv-x="536" 
d="M388 235h-237l-74 -235h-47l218 674h45l218 -674h-47zM164 274h211l-70 214q-19 58 -34 130h-3q-11 -53 -33 -128zM253 813h38l92 -103h-52l-58 69h-2l-58 -69h-49zM395 752l-30 9q7 17 29 40t22 41q0 14 -10 23.5t-25 9.5q-24 0 -50 -36l-23 14q29 57 82 57q29 0 49 -18
t20 -44q0 -19 -10 -33.5t-27.5 -31t-26.5 -31.5z" />
    <glyph glyph-name="uni1EA9" unicode="&#x1ea9;" horiz-adv-x="416" 
d="M346 311v-199q0 -70 6 -112h-42l-6 64h-3q-19 -31 -53.5 -52.5t-80.5 -21.5q-61 0 -96 38.5t-35 93.5q0 84 68.5 129.5t195.5 44.5v14q0 141 -111 141q-59 0 -105 -32l-14 34q53 37 126 37q150 0 150 -179zM300 153v104q-215 5 -215 -129q0 -49 25 -74t62 -25
q48 0 80.5 27t43.5 68q4 13 4 29zM177 685h37l75 -136h-44l-49 95h-3l-48 -95h-42zM312 634l-30 8q7 17 29 40.5t22 41.5q0 14 -10 23.5t-25 9.5q-25 0 -49 -36l-23 14q27 56 80 56q31 0 51 -18t20 -44q0 -19 -10 -33t-27.5 -30.5t-27.5 -31.5z" />
    <glyph glyph-name="uni1EAA" unicode="&#x1eaa;" horiz-adv-x="536" 
d="M388 235h-237l-74 -235h-47l218 674h45l218 -674h-47zM164 274h211l-70 214q-19 58 -34 130h-3q-11 -53 -33 -128zM250 813h40l101 -103h-52l-68 69h-2l-68 -69h-50zM198 825h-33q-1 35 15 57.5t43 22.5q17 0 55 -21q32 -16 42 -16q25 0 28 39h32q0 -81 -60 -81
q-20 0 -53 20q-34 18 -43 18q-23 0 -26 -39z" />
    <glyph glyph-name="uni1EAB" unicode="&#x1eab;" horiz-adv-x="416" 
d="M346 311v-199q0 -70 6 -112h-42l-6 64h-3q-19 -31 -53.5 -52.5t-80.5 -21.5q-61 0 -96 38.5t-35 93.5q0 84 68.5 129.5t195.5 44.5v14q0 141 -111 141q-59 0 -105 -32l-14 34q53 37 126 37q150 0 150 -179zM300 153v104q-215 5 -215 -129q0 -49 25 -74t62 -25
q48 0 80.5 27t43.5 68q4 13 4 29zM190 655h36l84 -106h-49l-52 70h-2l-53 -70h-46zM136 665h-33q-1 35 15 57.5t43 22.5q17 0 55 -21q32 -16 42 -16q25 0 28 39h32q0 -81 -60 -81q-20 0 -53 20q-34 18 -43 18q-23 0 -26 -39z" />
    <glyph glyph-name="uni1EAC" unicode="&#x1eac;" horiz-adv-x="536" 
d="M388 235h-237l-74 -235h-47l218 674h45l218 -674h-47zM164 274h211l-70 214q-19 58 -34 130h-3q-11 -53 -33 -128zM251 813h40l101 -103h-52l-68 69h-2l-68 -69h-50zM268 -154h-1q-15 0 -25.5 11t-10.5 26t11 26t26 11t25.5 -11t10.5 -26t-10.5 -26t-25.5 -11z" />
    <glyph glyph-name="uni1EAD" unicode="&#x1ead;" horiz-adv-x="416" 
d="M346 311v-199q0 -70 6 -112h-42l-6 64h-3q-19 -31 -53.5 -52.5t-80.5 -21.5q-61 0 -96 38.5t-35 93.5q0 84 68.5 129.5t195.5 44.5v14q0 141 -111 141q-59 0 -105 -32l-14 34q53 37 126 37q150 0 150 -179zM300 153v104q-215 5 -215 -129q0 -49 25 -74t62 -25
q48 0 80.5 27t43.5 68q4 13 4 29zM190 685h34l88 -136h-45l-59 96h-2l-59 -96h-43zM206 -80q15 0 25.5 -11t10.5 -27q0 -15 -10.5 -26t-26.5 -11t-26.5 11t-10.5 26t11 26.5t27 11.5z" />
    <glyph glyph-name="uni1EAE" unicode="&#x1eae;" horiz-adv-x="536" 
d="M388 235h-237l-74 -235h-47l218 674h45l218 -674h-47zM164 274h211l-70 214q-19 58 -34 130h-3q-11 -53 -33 -128zM166 786h33q12 -48 75 -48q62 0 76 48h34q-6 -38 -35 -63t-76 -25t-74.5 25t-32.5 63zM322 872h64l-102 -97h-37z" />
    <glyph glyph-name="uni1EAF" unicode="&#x1eaf;" horiz-adv-x="416" 
d="M346 311v-199q0 -70 6 -112h-42l-6 64h-3q-19 -31 -53.5 -52.5t-80.5 -21.5q-61 0 -96 38.5t-35 93.5q0 84 68.5 129.5t195.5 44.5v14q0 141 -111 141q-59 0 -105 -32l-14 34q53 37 126 37q150 0 150 -179zM300 153v104q-215 5 -215 -129q0 -49 25 -74t62 -25
q48 0 80.5 27t43.5 68q4 13 4 29zM252 742h62l-98 -117h-37zM98 645h34q4 -31 24.5 -51t51.5 -20q34 0 54 21t22 50h34q1 -49 -30 -80t-80 -31q-55 0 -82.5 33t-27.5 78z" />
    <glyph glyph-name="uni1EB0" unicode="&#x1eb0;" horiz-adv-x="536" 
d="M388 235h-237l-74 -235h-47l218 674h45l218 -674h-47zM164 274h211l-70 214q-19 58 -34 130h-3q-11 -53 -33 -128zM166 872h64l74 -97h-37zM163 786h33q13 -48 75 -48q63 0 77 48h33q-6 -38 -34.5 -63t-75.5 -25t-74.5 25t-33.5 63z" />
    <glyph glyph-name="uni1EB1" unicode="&#x1eb1;" horiz-adv-x="416" 
d="M346 311v-199q0 -70 6 -112h-42l-6 64h-3q-19 -31 -53.5 -52.5t-80.5 -21.5q-61 0 -96 38.5t-35 93.5q0 84 68.5 129.5t195.5 44.5v14q0 141 -111 141q-59 0 -105 -32l-14 34q53 37 126 37q150 0 150 -179zM300 153v104q-215 5 -215 -129q0 -49 25 -74t62 -25
q48 0 80.5 27t43.5 68q4 13 4 29zM99 742h62l73 -117h-37zM94 645h34q5 -31 25 -51t51 -20q34 0 54 21t22 50h34q1 -49 -30 -80t-80 -31q-55 0 -82.5 33t-27.5 78z" />
    <glyph glyph-name="uni1EB2" unicode="&#x1eb2;" horiz-adv-x="536" 
d="M388 235h-237l-74 -235h-47l218 674h45l218 -674h-47zM164 274h211l-70 214q-19 58 -34 130h-3q-11 -53 -33 -128zM279 763l-30 9q7 17 29 40t22 41q0 14 -9.5 23.5t-24.5 9.5q-24 0 -50 -36l-23 14q28 57 82 57q29 0 49 -18t20 -44q0 -19 -10 -33.5t-27.5 -31
t-27.5 -31.5zM163 786h33q13 -48 75 -48q63 0 77 48h33q-6 -38 -34.5 -63t-75.5 -25t-74.5 25t-33.5 63z" />
    <glyph glyph-name="uni1EB3" unicode="&#x1eb3;" horiz-adv-x="416" 
d="M346 311v-199q0 -70 6 -112h-42l-6 64h-3q-19 -31 -53.5 -52.5t-80.5 -21.5q-61 0 -96 38.5t-35 93.5q0 84 68.5 129.5t195.5 44.5v14q0 141 -111 141q-59 0 -105 -32l-14 34q53 37 126 37q150 0 150 -179zM300 153v104q-215 5 -215 -129q0 -49 25 -74t62 -25
q48 0 80.5 27t43.5 68q4 13 4 29zM211 619l-31 9q7 16 29.5 39.5t22.5 41.5q0 14 -10 23.5t-26 9.5q-23 0 -49 -36l-23 14q29 57 81 57q30 0 50.5 -18t20.5 -45q0 -19 -10 -33t-28 -30.5t-27 -31.5zM94 645h34q4 -31 24.5 -51t51.5 -20q34 0 54 21t22 50h34q1 -49 -30 -80
t-80 -31q-55 0 -82.5 33t-27.5 78z" />
    <glyph glyph-name="uni1EB4" unicode="&#x1eb4;" horiz-adv-x="536" 
d="M388 235h-237l-74 -235h-47l218 674h45l218 -674h-47zM164 274h211l-70 214q-19 58 -34 130h-3q-11 -53 -33 -128zM195 822h-34q2 30 17 50.5t41 20.5q13 0 55 -21q30 -17 42 -17q25 0 28 40h32q0 -81 -60 -81q-19 0 -53 19q-31 18 -43 18q-18 0 -25 -29zM158 786h33
q13 -48 75 -48q63 0 77 48h33q-6 -38 -34.5 -63t-75.5 -25q-46 0 -74 25t-34 63z" />
    <glyph glyph-name="uni1EB5" unicode="&#x1eb5;" horiz-adv-x="416" 
d="M346 311v-199q0 -70 6 -112h-42l-6 64h-3q-19 -31 -53.5 -52.5t-80.5 -21.5q-61 0 -96 38.5t-35 93.5q0 84 68.5 129.5t195.5 44.5v14q0 141 -111 141q-59 0 -105 -32l-14 34q53 37 126 37q150 0 150 -179zM300 153v104q-215 5 -215 -129q0 -49 25 -74t62 -25
q48 0 80.5 27t43.5 68q4 13 4 29zM136 685h-34q2 30 17 50t41 20q16 0 55 -21q32 -16 42 -16q25 0 28 39h32q0 -81 -60 -81q-20 0 -53 20q-34 18 -43 18q-18 0 -25 -29zM98 645h34q4 -31 24.5 -51t51.5 -20q34 0 54 21t22 50h34q1 -49 -30 -80t-80 -31q-55 0 -82.5 33
t-27.5 78z" />
    <glyph glyph-name="uni1EB6" unicode="&#x1eb6;" horiz-adv-x="536" 
d="M388 235h-237l-74 -235h-47l218 674h45l218 -674h-47zM164 274h211l-70 214q-19 58 -34 130h-3q-11 -53 -33 -128zM160 814h33q13 -48 76 -48q66 0 76 48h33q-1 -40 -29 -65t-81 -25q-52 0 -79.5 24.5t-28.5 65.5zM270 -154h-1q-15 0 -25.5 11t-10.5 26t11 26t26 11
t25.5 -11t10.5 -26t-10.5 -26t-25.5 -11z" />
    <glyph glyph-name="uni1EB7" unicode="&#x1eb7;" horiz-adv-x="416" 
d="M346 311v-199q0 -70 6 -112h-42l-6 64h-3q-19 -31 -53.5 -52.5t-80.5 -21.5q-61 0 -96 38.5t-35 93.5q0 84 68.5 129.5t195.5 44.5v14q0 141 -111 141q-59 0 -105 -32l-14 34q53 37 126 37q150 0 150 -179zM300 153v104q-215 5 -215 -129q0 -49 25 -74t62 -25
q48 0 80.5 27t43.5 68q4 13 4 29zM98 672h34q4 -31 24.5 -51.5t51.5 -20.5q34 0 54 21t22 51h34q1 -50 -30 -80.5t-80 -30.5q-55 0 -82.5 33t-27.5 78zM206 -80q15 0 25.5 -11t10.5 -27q0 -15 -10.5 -26t-26.5 -11t-26.5 11t-10.5 26t11 26.5t27 11.5z" />
    <glyph glyph-name="uni1EB8" unicode="&#x1eb8;" horiz-adv-x="425" 
d="M364 375v-40h-242v-295h272v-40h-318v674h303v-40h-257v-259h242zM213 -154h-1q-15 0 -25.5 11t-10.5 26t11 26t26 11t25.5 -11t10.5 -26t-10.5 -26t-25.5 -11z" />
    <glyph glyph-name="uni1EB9" unicode="&#x1eb9;" horiz-adv-x="438" 
d="M399 249h-314q0 -116 46 -167t118 -51q71 0 115 25l12 -36q-48 -29 -133 -29q-95 0 -149.5 67t-54.5 175q0 117 54 187t140 70q49 0 84 -22t52 -57t24 -68t7 -65q0 -20 -1 -29zM87 286h265q1 69 -30 117t-95 48q-63 0 -98 -49.5t-42 -115.5zM217 -80q15 0 25.5 -11
t10.5 -27q0 -15 -10.5 -26t-26.5 -11t-26.5 11t-10.5 26t11 26.5t27 11.5z" />
    <glyph glyph-name="uni1EBA" unicode="&#x1eba;" horiz-adv-x="425" 
d="M364 375v-40h-242v-295h272v-40h-318v674h303v-40h-257v-259h242zM248 710l-30 9q7 18 29 41t22 40q0 32 -34 32q-27 0 -50 -35l-23 15q27 56 82 56q30 0 50 -17.5t20 -44.5q0 -19 -10 -33t-28 -31t-28 -32z" />
    <glyph glyph-name="uni1EBB" unicode="&#x1ebb;" horiz-adv-x="438" 
d="M399 249h-314q0 -116 46 -167t118 -51q71 0 115 25l12 -36q-48 -29 -133 -29q-95 0 -149.5 67t-54.5 175q0 117 54 187t140 70q49 0 84 -22t52 -57t24 -68t7 -65q0 -20 -1 -29zM87 286h265q1 69 -30 117t-95 48q-63 0 -98 -49.5t-42 -115.5zM226 532l-30 9q5 19 30 45.5
t25 45.5q0 16 -10 25.5t-26 9.5q-26 0 -48 -35l-23 14q25 58 79 58q31 0 51.5 -18.5t20.5 -47.5q0 -28 -31 -60t-38 -46z" />
    <glyph glyph-name="uni1EBC" unicode="&#x1ebc;" horiz-adv-x="425" 
d="M364 375v-40h-242v-295h272v-40h-318v674h303v-40h-257v-259h242zM154 716h-32q-1 36 15.5 60.5t44.5 24.5q17 0 53 -20q34 -17 47 -17t20 7.5t8 29.5h32q0 -79 -60 -79q-22 0 -55 19q-34 19 -46 19q-22 0 -27 -44z" />
    <glyph glyph-name="uni1EBD" unicode="&#x1ebd;" horiz-adv-x="438" 
d="M144 570h-33q-1 38 15 61.5t44 23.5q16 0 55 -21q30 -17 42 -17q25 0 28 40h32q0 -81 -60 -81q-19 0 -53 19q-31 18 -43 18q-22 0 -27 -43zM399 249h-314q0 -116 46 -167t118 -51q71 0 115 25l12 -36q-48 -29 -133 -29q-95 0 -149.5 67t-54.5 175q0 117 54 187t140 70
q49 0 84 -22t52 -57t24 -68t7 -65q0 -20 -1 -29zM87 286h265q1 69 -30 117t-95 48q-63 0 -98 -49.5t-42 -115.5z" />
    <glyph glyph-name="uni1EBE" unicode="&#x1ebe;" horiz-adv-x="425" 
d="M364 375v-40h-242v-295h272v-40h-318v674h303v-40h-257v-259h242zM212 813h38l92 -103h-51l-59 69h-2l-58 -69h-49zM382 884h62l-108 -97h-37z" />
    <glyph glyph-name="uni1EBF" unicode="&#x1ebf;" horiz-adv-x="438" 
d="M399 249h-314q0 -116 46 -167t118 -51q71 0 115 25l12 -36q-48 -29 -133 -29q-95 0 -149.5 67t-54.5 175q0 117 54 187t140 70q49 0 84 -22t52 -57t24 -68t7 -65q0 -20 -1 -29zM87 286h265q1 69 -30 117t-95 48q-63 0 -98 -49.5t-42 -115.5zM215 685h37l75 -136h-44
l-49 95h-3l-48 -95h-42zM368 750h57l-83 -116h-33z" />
    <glyph glyph-name="uni1EC0" unicode="&#x1ec0;" horiz-adv-x="425" 
d="M364 375v-40h-242v-295h272v-40h-318v674h303v-40h-257v-259h242zM252 865h64l74 -98h-37zM207 813h38l92 -103h-52l-58 69h-2l-58 -69h-49z" />
    <glyph glyph-name="uni1EC1" unicode="&#x1ec1;" horiz-adv-x="438" 
d="M399 249h-314q0 -116 46 -167t118 -51q71 0 115 25l12 -36q-48 -29 -133 -29q-95 0 -149.5 67t-54.5 175q0 117 54 187t140 70q49 0 84 -22t52 -57t24 -68t7 -65q0 -20 -1 -29zM87 286h265q1 69 -30 117t-95 48q-63 0 -98 -49.5t-42 -115.5zM265 749h56l57 -115h-33z
M213 685h37l75 -136h-44l-49 95h-3l-48 -95h-42z" />
    <glyph glyph-name="uni1EC2" unicode="&#x1ec2;" horiz-adv-x="425" 
d="M364 375v-40h-242v-295h272v-40h-318v674h303v-40h-257v-259h242zM207 813h38l92 -103h-52l-58 69h-2l-58 -69h-49zM349 752l-30 9q7 17 29 40t22 41q0 14 -10 23.5t-25 9.5q-24 0 -50 -36l-23 14q29 57 82 57q29 0 49 -18t20 -44q0 -19 -10 -33.5t-27.5 -31t-26.5 -31.5
z" />
    <glyph glyph-name="uni1EC3" unicode="&#x1ec3;" horiz-adv-x="438" 
d="M399 249h-314q0 -116 46 -167t118 -51q71 0 115 25l12 -36q-48 -29 -133 -29q-95 0 -149.5 67t-54.5 175q0 117 54 187t140 70q49 0 84 -22t52 -57t24 -68t7 -65q0 -20 -1 -29zM87 286h265q1 69 -30 117t-95 48q-63 0 -98 -49.5t-42 -115.5zM207 685h37l75 -136h-44
l-49 95h-3l-48 -95h-42zM342 634l-30 8q7 17 29 40.5t22 41.5q0 14 -10 23.5t-25 9.5q-25 0 -49 -36l-23 14q27 56 80 56q31 0 51 -18t20 -44q0 -19 -10 -33t-27.5 -30.5t-27.5 -31.5z" />
    <glyph glyph-name="uni1EC4" unicode="&#x1ec4;" horiz-adv-x="425" 
d="M364 375v-40h-242v-295h272v-40h-318v674h303v-40h-257v-259h242zM213 813h40l101 -103h-52l-68 69h-2l-68 -69h-50zM161 825h-33q-1 35 15 57.5t43 22.5q16 0 55 -21q32 -16 42 -16q25 0 28 39h32q0 -81 -60 -81q-20 0 -53 20q-34 18 -43 18q-23 0 -26 -39z" />
    <glyph glyph-name="uni1EC5" unicode="&#x1ec5;" horiz-adv-x="438" 
d="M399 249h-314q0 -116 46 -167t118 -51q71 0 115 25l12 -36q-48 -29 -133 -29q-95 0 -149.5 67t-54.5 175q0 117 54 187t140 70q49 0 84 -22t52 -57t24 -68t7 -65q0 -20 -1 -29zM87 286h265q1 69 -30 117t-95 48q-63 0 -98 -49.5t-42 -115.5zM211 655h36l84 -106h-49
l-52 70h-2l-53 -70h-46zM157 665h-33q-1 35 15 57.5t43 22.5q17 0 55 -21q32 -16 42 -16q25 0 28 39h32q0 -81 -60 -81q-20 0 -53 20q-34 18 -43 18q-23 0 -26 -39z" />
    <glyph glyph-name="uni1EC6" unicode="&#x1ec6;" horiz-adv-x="425" 
d="M364 375v-40h-242v-295h272v-40h-318v674h303v-40h-257v-259h242zM210 813h40l101 -103h-52l-68 69h-2l-68 -69h-50zM230 -154h-1q-15 0 -25.5 11t-10.5 26t11 26t26 11t25.5 -11t10.5 -26t-10.5 -26t-25.5 -11z" />
    <glyph glyph-name="uni1EC7" unicode="&#x1ec7;" horiz-adv-x="438" 
d="M399 249h-314q0 -116 46 -167t118 -51q71 0 115 25l12 -36q-48 -29 -133 -29q-95 0 -149.5 67t-54.5 175q0 117 54 187t140 70q49 0 84 -22t52 -57t24 -68t7 -65q0 -20 -1 -29zM87 286h265q1 69 -30 117t-95 48q-63 0 -98 -49.5t-42 -115.5zM201 685h34l88 -136h-45
l-59 96h-2l-59 -96h-43zM217 -80q15 0 25.5 -11t10.5 -27q0 -15 -10.5 -26t-26.5 -11t-26.5 11t-10.5 26t11 26.5t27 11.5z" />
    <glyph glyph-name="uni1EC8" unicode="&#x1ec8;" horiz-adv-x="198" 
d="M76 674h46v-674h-46v674zM114 710l-30 9q7 18 29 41t22 40q0 32 -34 32q-27 0 -50 -35l-23 15q27 56 82 56q30 0 50 -17.5t20 -44.5q0 -19 -10 -33t-28 -31t-28 -32z" />
    <glyph glyph-name="uni1EC9" unicode="&#x1ec9;" horiz-adv-x="195" 
d="M120 0h-46v480h46v-480zM105 532l-30 9q5 19 30 45.5t25 45.5q0 16 -10 25.5t-26 9.5q-26 0 -48 -35l-23 14q25 58 79 58q31 0 51.5 -18.5t20.5 -47.5q0 -28 -31 -60t-38 -46z" />
    <glyph glyph-name="uni1ECA" unicode="&#x1eca;" horiz-adv-x="198" 
d="M76 674h46v-674h-46v674zM100 -154h-1q-15 0 -25.5 11t-10.5 26t11 26t26 11t25.5 -11t10.5 -26t-10.5 -26t-25.5 -11z" />
    <glyph glyph-name="uni1ECB" unicode="&#x1ecb;" horiz-adv-x="195" 
d="M120 0h-46v480h46v-480zM97 653q17 0 27 -11t10 -29q0 -17 -10.5 -28.5t-27.5 -11.5q-15 0 -25 11.5t-10 28.5t10 28.5t26 11.5zM96 -80q15 0 25.5 -11t10.5 -27q0 -15 -10.5 -26t-26.5 -11t-26.5 11t-10.5 26t11 26.5t27 11.5z" />
    <glyph glyph-name="uni1ECC" unicode="&#x1ecc;" horiz-adv-x="597" 
d="M304 684q112 0 184 -90.5t72 -251.5q0 -172 -76.5 -262t-189.5 -90q-111 0 -184 90.5t-73 251.5q0 166 75.5 259t191.5 93zM299 645q-72 0 -122 -48t-71 -116t-21 -148q0 -120 56.5 -212t156.5 -92q69 0 119 46t72.5 115t22.5 150q0 74 -21 141t-71 115.5t-121 48.5z
M299 -154h-1q-15 0 -25.5 11t-10.5 26t11 26t26 11t25.5 -11t10.5 -26t-10.5 -26t-25.5 -11z" />
    <glyph glyph-name="uni1ECD" unicode="&#x1ecd;" horiz-adv-x="478" 
d="M242 490q87 0 142 -66.5t55 -180.5q0 -124 -61 -188.5t-143 -64.5q-84 0 -140 66t-56 181q0 120 59 186.5t144 66.5zM240 451q-52 0 -88 -34t-51 -80t-15 -98q0 -84 42 -147t110 -63q69 0 111.5 63.5t42.5 149.5q0 47 -13.5 92t-49.5 81t-89 36zM237 -80q15 0 25.5 -11
t10.5 -27q0 -15 -10.5 -26t-26.5 -11t-26.5 11t-10.5 26t11 26.5t27 11.5z" />
    <glyph glyph-name="uni1ECE" unicode="&#x1ece;" horiz-adv-x="597" 
d="M304 684q112 0 184 -90.5t72 -251.5q0 -172 -76.5 -262t-189.5 -90q-111 0 -184 90.5t-73 251.5q0 166 75.5 259t191.5 93zM299 645q-72 0 -122 -48t-71 -116t-21 -148q0 -120 56.5 -212t156.5 -92q69 0 119 46t72.5 115t22.5 150q0 74 -21 141t-71 115.5t-121 48.5z
M312 710l-30 9q7 18 29 41t22 40q0 32 -34 32q-27 0 -50 -35l-23 15q27 56 82 56q30 0 50 -17.5t20 -44.5q0 -19 -10 -33t-28 -31t-28 -32z" />
    <glyph glyph-name="uni1ECF" unicode="&#x1ecf;" horiz-adv-x="478" 
d="M242 490q87 0 142 -66.5t55 -180.5q0 -124 -61 -188.5t-143 -64.5q-84 0 -140 66t-56 181q0 120 59 186.5t144 66.5zM240 451q-52 0 -88 -34t-51 -80t-15 -98q0 -84 42 -147t110 -63q69 0 111.5 63.5t42.5 149.5q0 47 -13.5 92t-49.5 81t-89 36zM246 532l-30 9
q5 19 30 45.5t25 45.5q0 16 -10 25.5t-26 9.5q-26 0 -48 -35l-23 14q25 58 79 58q31 0 51.5 -18.5t20.5 -47.5q0 -28 -31 -60t-38 -46z" />
    <glyph glyph-name="uni1ED0" unicode="&#x1ed0;" horiz-adv-x="597" 
d="M304 684q112 0 184 -90.5t72 -251.5q0 -172 -76.5 -262t-189.5 -90q-111 0 -184 90.5t-73 251.5q0 166 75.5 259t191.5 93zM299 645q-72 0 -122 -48t-71 -116t-21 -148q0 -120 56.5 -212t156.5 -92q69 0 119 46t72.5 115t22.5 150q0 74 -21 141t-71 115.5t-121 48.5z
M287 813h38l92 -103h-51l-59 69h-2l-58 -69h-49zM457 884h62l-108 -97h-37z" />
    <glyph glyph-name="uni1ED1" unicode="&#x1ed1;" horiz-adv-x="478" 
d="M242 490q87 0 142 -66.5t55 -180.5q0 -124 -61 -188.5t-143 -64.5q-84 0 -140 66t-56 181q0 120 59 186.5t144 66.5zM240 451q-52 0 -88 -34t-51 -80t-15 -98q0 -84 42 -147t110 -63q69 0 111.5 63.5t42.5 149.5q0 47 -13.5 92t-49.5 81t-89 36zM224 685h37l75 -136h-44
l-49 95h-3l-48 -95h-42zM377 750h57l-83 -116h-33z" />
    <glyph glyph-name="uni1ED2" unicode="&#x1ed2;" horiz-adv-x="597" 
d="M304 684q112 0 184 -90.5t72 -251.5q0 -172 -76.5 -262t-189.5 -90q-111 0 -184 90.5t-73 251.5q0 166 75.5 259t191.5 93zM299 645q-72 0 -122 -48t-71 -116t-21 -148q0 -120 56.5 -212t156.5 -92q69 0 119 46t72.5 115t22.5 150q0 74 -21 141t-71 115.5t-121 48.5z
M328 865h64l74 -98h-37zM283 813h38l92 -103h-52l-58 69h-2l-58 -69h-49z" />
    <glyph glyph-name="uni1ED3" unicode="&#x1ed3;" horiz-adv-x="478" 
d="M242 490q87 0 142 -66.5t55 -180.5q0 -124 -61 -188.5t-143 -64.5q-84 0 -140 66t-56 181q0 120 59 186.5t144 66.5zM240 451q-52 0 -88 -34t-51 -80t-15 -98q0 -84 42 -147t110 -63q69 0 111.5 63.5t42.5 149.5q0 47 -13.5 92t-49.5 81t-89 36zM276 749h56l57 -115h-33z
M224 685h37l75 -136h-44l-49 95h-3l-48 -95h-42z" />
    <glyph glyph-name="uni1ED4" unicode="&#x1ed4;" horiz-adv-x="597" 
d="M304 684q112 0 184 -90.5t72 -251.5q0 -172 -76.5 -262t-189.5 -90q-111 0 -184 90.5t-73 251.5q0 166 75.5 259t191.5 93zM299 645q-72 0 -122 -48t-71 -116t-21 -148q0 -120 56.5 -212t156.5 -92q69 0 119 46t72.5 115t22.5 150q0 74 -21 141t-71 115.5t-121 48.5z
M280 813h38l92 -103h-52l-58 69h-2l-58 -69h-49zM422 752l-30 9q7 17 29 40t22 41q0 14 -10 23.5t-25 9.5q-24 0 -50 -36l-23 14q29 57 82 57q29 0 49 -18t20 -44q0 -19 -10 -33.5t-27.5 -31t-26.5 -31.5z" />
    <glyph glyph-name="uni1ED5" unicode="&#x1ed5;" horiz-adv-x="478" 
d="M242 490q87 0 142 -66.5t55 -180.5q0 -124 -61 -188.5t-143 -64.5q-84 0 -140 66t-56 181q0 120 59 186.5t144 66.5zM240 451q-52 0 -88 -34t-51 -80t-15 -98q0 -84 42 -147t110 -63q69 0 111.5 63.5t42.5 149.5q0 47 -13.5 92t-49.5 81t-89 36zM219 685h37l75 -136h-44
l-49 95h-3l-48 -95h-42zM354 634l-30 8q7 17 29 40.5t22 41.5q0 14 -10 23.5t-25 9.5q-25 0 -49 -36l-23 14q27 56 80 56q31 0 51 -18t20 -44q0 -19 -10 -33t-27.5 -30.5t-27.5 -31.5z" />
    <glyph glyph-name="uni1ED6" unicode="&#x1ed6;" horiz-adv-x="597" 
d="M304 684q112 0 184 -90.5t72 -251.5q0 -172 -76.5 -262t-189.5 -90q-111 0 -184 90.5t-73 251.5q0 166 75.5 259t191.5 93zM299 645q-72 0 -122 -48t-71 -116t-21 -148q0 -120 56.5 -212t156.5 -92q69 0 119 46t72.5 115t22.5 150q0 74 -21 141t-71 115.5t-121 48.5z
M277 813h40l101 -103h-52l-68 69h-2l-68 -69h-50zM225 825h-33q-1 35 15 57.5t43 22.5q16 0 55 -21q32 -16 42 -16q25 0 28 39h32q0 -81 -60 -81q-20 0 -53 20q-34 18 -43 18q-23 0 -26 -39z" />
    <glyph glyph-name="uni1ED7" unicode="&#x1ed7;" horiz-adv-x="478" 
d="M242 490q87 0 142 -66.5t55 -180.5q0 -124 -61 -188.5t-143 -64.5q-84 0 -140 66t-56 181q0 120 59 186.5t144 66.5zM240 451q-52 0 -88 -34t-51 -80t-15 -98q0 -84 42 -147t110 -63q69 0 111.5 63.5t42.5 149.5q0 47 -13.5 92t-49.5 81t-89 36zM220 655h36l84 -106h-49
l-52 70h-2l-53 -70h-46zM166 665h-33q-1 35 15 57.5t43 22.5q17 0 55 -21q32 -16 42 -16q25 0 28 39h32q0 -81 -60 -81q-20 0 -53 20q-34 18 -43 18q-23 0 -26 -39z" />
    <glyph glyph-name="uni1ED8" unicode="&#x1ed8;" horiz-adv-x="597" 
d="M304 684q112 0 184 -90.5t72 -251.5q0 -172 -76.5 -262t-189.5 -90q-111 0 -184 90.5t-73 251.5q0 166 75.5 259t191.5 93zM299 645q-72 0 -122 -48t-71 -116t-21 -148q0 -120 56.5 -212t156.5 -92q69 0 119 46t72.5 115t22.5 150q0 74 -21 141t-71 115.5t-121 48.5z
M277 813h40l101 -103h-52l-68 69h-2l-68 -69h-50zM299 -154h-1q-15 0 -25.5 11t-10.5 26t11 26t26 11t25.5 -11t10.5 -26t-10.5 -26t-25.5 -11z" />
    <glyph glyph-name="uni1ED9" unicode="&#x1ed9;" horiz-adv-x="478" 
d="M242 490q87 0 142 -66.5t55 -180.5q0 -124 -61 -188.5t-143 -64.5q-84 0 -140 66t-56 181q0 120 59 186.5t144 66.5zM240 451q-52 0 -88 -34t-51 -80t-15 -98q0 -84 42 -147t110 -63q69 0 111.5 63.5t42.5 149.5q0 47 -13.5 92t-49.5 81t-89 36zM221 685h34l88 -136h-45
l-59 96h-2l-59 -96h-43zM237 -80q15 0 25.5 -11t10.5 -27q0 -15 -10.5 -26t-26.5 -11t-26.5 11t-10.5 26t11 26.5t27 11.5z" />
    <glyph glyph-name="uni1EDA" unicode="&#x1eda;" horiz-adv-x="597" 
d="M298 29q69 0 119 46t72.5 115t22.5 150q0 74 -21 141t-71 115.5t-121 48.5q-72 0 -122 -48t-71 -116t-21 -148q0 -120 56.5 -212t156.5 -92zM516 736l42 8q14 -30 14 -65q0 -38 -23.5 -59.5t-69.5 -14.5q81 -94 81 -263q0 -172 -76.5 -262t-189.5 -90q-111 0 -184 90.5
t-73 251.5q0 166 75.5 259t191.5 93q41 0 85 -16q6 -2 21 -8.5l25.5 -11t24.5 -8t24 -3.5q25 0 35 10.5t10 32.5q0 28 -13 56zM365 820h71l-129 -110h-41z" />
    <glyph glyph-name="uni1EDB" unicode="&#x1edb;" horiz-adv-x="478" 
d="M240 451q-52 0 -88 -34t-51 -80t-15 -98q0 -84 42 -147t110 -63q69 0 111.5 63.5t42.5 149.5q0 47 -13.5 92t-49.5 81t-89 36zM417 545l41 8q14 -28 14 -58q0 -37 -22.5 -57.5t-64.5 -14.5q54 -65 54 -180q0 -124 -61 -188.5t-143 -64.5q-84 0 -140 66t-56 181
q0 120 59 186.5t144 66.5q37 0 70 -13q4 -2 20 -8.5t29.5 -10.5t27.5 -4q40 0 40 41q0 26 -12 50zM299 685h66l-117 -136h-35z" />
    <glyph glyph-name="uni1EDC" unicode="&#x1edc;" horiz-adv-x="597" 
d="M298 29q69 0 119 46t72.5 115t22.5 150q0 74 -21 141t-71 115.5t-121 48.5q-72 0 -122 -48t-71 -116t-21 -148q0 -120 56.5 -212t156.5 -92zM516 736l42 8q14 -30 14 -65q0 -38 -23.5 -59.5t-69.5 -14.5q81 -94 81 -263q0 -172 -76.5 -262t-189.5 -90q-111 0 -184 90.5
t-73 251.5q0 166 75.5 259t191.5 93q41 0 85 -16q6 -2 21 -8.5l25.5 -11t24.5 -8t24 -3.5q25 0 35 10.5t10 32.5q0 28 -13 56zM177 820h71l99 -110h-41z" />
    <glyph glyph-name="uni1EDD" unicode="&#x1edd;" horiz-adv-x="478" 
d="M240 451q-52 0 -88 -34t-51 -80t-15 -98q0 -84 42 -147t110 -63q69 0 111.5 63.5t42.5 149.5q0 47 -13.5 92t-49.5 81t-89 36zM417 545l41 8q14 -28 14 -58q0 -37 -22.5 -57.5t-64.5 -14.5q54 -65 54 -180q0 -124 -61 -188.5t-143 -64.5q-84 0 -140 66t-56 181
q0 120 59 186.5t144 66.5q37 0 70 -13q4 -2 20 -8.5t29.5 -10.5t27.5 -4q40 0 40 41q0 26 -12 50zM131 685h66l87 -136h-35z" />
    <glyph glyph-name="uni1EDE" unicode="&#x1ede;" horiz-adv-x="597" 
d="M298 29q69 0 119 46t72.5 115t22.5 150q0 74 -21 141t-71 115.5t-121 48.5q-72 0 -122 -48t-71 -116t-21 -148q0 -120 56.5 -212t156.5 -92zM516 736l42 8q14 -30 14 -65q0 -38 -23.5 -59.5t-69.5 -14.5q81 -94 81 -263q0 -172 -76.5 -262t-189.5 -90q-111 0 -184 90.5
t-73 251.5q0 166 75.5 259t191.5 93q41 0 85 -16q6 -2 21 -8.5l25.5 -11t24.5 -8t24 -3.5q25 0 35 10.5t10 32.5q0 28 -13 56zM312 710l-30 9q7 18 29 41t22 40q0 32 -34 32q-27 0 -50 -35l-23 15q27 56 82 56q30 0 50 -17.5t20 -44.5q0 -19 -10 -33t-28 -31t-28 -32z" />
    <glyph glyph-name="uni1EDF" unicode="&#x1edf;" horiz-adv-x="478" 
d="M240 451q-52 0 -88 -34t-51 -80t-15 -98q0 -84 42 -147t110 -63q69 0 111.5 63.5t42.5 149.5q0 47 -13.5 92t-49.5 81t-89 36zM417 545l41 8q14 -28 14 -58q0 -37 -22.5 -57.5t-64.5 -14.5q54 -65 54 -180q0 -124 -61 -188.5t-143 -64.5q-84 0 -140 66t-56 181
q0 120 59 186.5t144 66.5q37 0 70 -13q4 -2 20 -8.5t29.5 -10.5t27.5 -4q40 0 40 41q0 26 -12 50zM246 532l-30 9q5 19 30 45.5t25 45.5q0 16 -10 25.5t-26 9.5q-26 0 -48 -35l-23 14q25 58 79 58q31 0 51.5 -18.5t20.5 -47.5q0 -28 -31 -60t-38 -46z" />
    <glyph glyph-name="uni1EE0" unicode="&#x1ee0;" horiz-adv-x="597" 
d="M298 29q69 0 119 46t72.5 115t22.5 150q0 74 -21 141t-71 115.5t-121 48.5q-72 0 -122 -48t-71 -116t-21 -148q0 -120 56.5 -212t156.5 -92zM516 736l42 8q14 -30 14 -65q0 -38 -23.5 -59.5t-69.5 -14.5q81 -94 81 -263q0 -172 -76.5 -262t-189.5 -90q-111 0 -184 90.5
t-73 251.5q0 166 75.5 259t191.5 93q41 0 85 -16q6 -2 21 -8.5l25.5 -11t24.5 -8t24 -3.5q25 0 35 10.5t10 32.5q0 28 -13 56zM226 716h-32q-1 36 15.5 60.5t44.5 24.5q17 0 53 -20q34 -17 47 -17t20 7.5t8 29.5h32q0 -79 -60 -79q-22 0 -55 19q-34 19 -46 19q-22 0 -27 -44
z" />
    <glyph glyph-name="uni1EE1" unicode="&#x1ee1;" horiz-adv-x="478" 
d="M240 451q-52 0 -88 -34t-51 -80t-15 -98q0 -84 42 -147t110 -63q69 0 111.5 63.5t42.5 149.5q0 47 -13.5 92t-49.5 81t-89 36zM417 545l41 8q14 -28 14 -58q0 -37 -22.5 -57.5t-64.5 -14.5q54 -65 54 -180q0 -124 -61 -188.5t-143 -64.5q-84 0 -140 66t-56 181
q0 120 59 186.5t144 66.5q37 0 70 -13q4 -2 20 -8.5t29.5 -10.5t27.5 -4q40 0 40 41q0 26 -12 50zM164 570h-33q-1 38 15 61.5t44 23.5q16 0 55 -21q30 -17 42 -17q25 0 28 40h32q0 -81 -60 -81q-19 0 -53 19q-31 18 -43 18q-22 0 -27 -43z" />
    <glyph glyph-name="uni1EE2" unicode="&#x1ee2;" horiz-adv-x="597" 
d="M298 29q69 0 119 46t72.5 115t22.5 150q0 74 -21 141t-71 115.5t-121 48.5q-72 0 -122 -48t-71 -116t-21 -148q0 -120 56.5 -212t156.5 -92zM516 736l42 8q14 -30 14 -65q0 -38 -23.5 -59.5t-69.5 -14.5q81 -94 81 -263q0 -172 -76.5 -262t-189.5 -90q-111 0 -184 90.5
t-73 251.5q0 166 75.5 259t191.5 93q41 0 85 -16q6 -2 21 -8.5l25.5 -11t24.5 -8t24 -3.5q25 0 35 10.5t10 32.5q0 28 -13 56zM299 -154h-1q-15 0 -25.5 11t-10.5 26t11 26t26 11t25.5 -11t10.5 -26t-10.5 -26t-25.5 -11z" />
    <glyph glyph-name="uni1EE3" unicode="&#x1ee3;" horiz-adv-x="478" 
d="M240 451q-52 0 -88 -34t-51 -80t-15 -98q0 -84 42 -147t110 -63q69 0 111.5 63.5t42.5 149.5q0 47 -13.5 92t-49.5 81t-89 36zM417 545l41 8q14 -28 14 -58q0 -37 -22.5 -57.5t-64.5 -14.5q54 -65 54 -180q0 -124 -61 -188.5t-143 -64.5q-84 0 -140 66t-56 181
q0 120 59 186.5t144 66.5q37 0 70 -13q4 -2 20 -8.5t29.5 -10.5t27.5 -4q40 0 40 41q0 26 -12 50zM237 -80q15 0 25.5 -11t10.5 -27q0 -15 -10.5 -26t-26.5 -11t-26.5 11t-10.5 26t11 26.5t27 11.5z" />
    <glyph glyph-name="uni1EE4" unicode="&#x1ee4;" horiz-adv-x="568" 
d="M76 674h46v-423q0 -114 43.5 -167.5t114.5 -53.5q77 0 121.5 54.5t44.5 166.5v423h46v-418q0 -139 -60 -202.5t-154 -63.5q-89 0 -145.5 60.5t-56.5 195.5v428zM284 -154h-1q-15 0 -25.5 11t-10.5 26t11 26t26 11t25.5 -11t10.5 -26t-10.5 -26t-25.5 -11z" />
    <glyph glyph-name="uni1EE5" unicode="&#x1ee5;" horiz-adv-x="481" 
d="M407 480v-362q0 -48 4 -118h-42l-4 75h-2q-18 -34 -55.5 -59.5t-89.5 -25.5q-60 0 -103.5 46t-43.5 155v289h46v-279q0 -171 112 -171q46 0 79 28.5t46 65.5q7 26 7 50v306h46zM238 -80q15 0 25.5 -11t10.5 -27q0 -15 -10.5 -26t-26.5 -11t-26.5 11t-10.5 26t11 26.5
t27 11.5z" />
    <glyph glyph-name="uni1EE6" unicode="&#x1ee6;" horiz-adv-x="568" 
d="M76 674h46v-423q0 -114 43.5 -167.5t114.5 -53.5q77 0 121.5 54.5t44.5 166.5v423h46v-418q0 -139 -60 -202.5t-154 -63.5q-89 0 -145.5 60.5t-56.5 195.5v428zM298 710l-30 9q7 18 29 41t22 40q0 32 -34 32q-27 0 -50 -35l-23 15q27 56 82 56q30 0 50 -17.5t20 -44.5
q0 -19 -10 -33t-28 -31t-28 -32z" />
    <glyph glyph-name="uni1EE7" unicode="&#x1ee7;" horiz-adv-x="481" 
d="M407 480v-362q0 -48 4 -118h-42l-4 75h-2q-18 -34 -55.5 -59.5t-89.5 -25.5q-60 0 -103.5 46t-43.5 155v289h46v-279q0 -171 112 -171q46 0 79 28.5t46 65.5q7 26 7 50v306h46zM247 532l-30 9q5 19 30 45.5t25 45.5q0 16 -10 25.5t-26 9.5q-26 0 -48 -35l-23 14
q25 58 79 58q31 0 51.5 -18.5t20.5 -47.5q0 -28 -31 -60t-38 -46z" />
    <glyph glyph-name="uni1EE8" unicode="&#x1ee8;" horiz-adv-x="584" 
d="M525 760l42 8q13 -28 13 -59q0 -32 -19 -51t-56 -19h-13v-383q0 -139 -60 -202.5t-154 -63.5q-89 0 -145.5 60.5t-56.5 195.5v428h46v-423q0 -114 43.5 -167.5t114.5 -53.5q77 0 121.5 54.5t44.5 166.5v423h51q22 0 31.5 8.5t9.5 27.5q0 26 -13 50zM351 820h71l-129 -110
h-41z" />
    <glyph glyph-name="uni1EE9" unicode="&#x1ee9;" horiz-adv-x="481" 
d="M440 568l41 8q15 -25 15 -58q0 -32 -20.5 -52t-56.5 -20h-12v-328q0 -48 4 -118h-42l-4 75h-2q-18 -34 -55.5 -59.5t-89.5 -25.5q-60 0 -103.5 46t-43.5 155v289h46v-279q0 -171 112 -171q46 0 79 28.5t46 65.5q7 26 7 50v306h51q42 0 42 38q0 26 -14 50zM309 685h66
l-117 -136h-35z" />
    <glyph glyph-name="uni1EEA" unicode="&#x1eea;" horiz-adv-x="584" 
d="M525 760l42 8q13 -28 13 -59q0 -32 -19 -51t-56 -19h-13v-383q0 -139 -60 -202.5t-154 -63.5q-89 0 -145.5 60.5t-56.5 195.5v428h46v-423q0 -114 43.5 -167.5t114.5 -53.5q77 0 121.5 54.5t44.5 166.5v423h51q22 0 31.5 8.5t9.5 27.5q0 26 -13 50zM156 820h71l99 -110
h-41z" />
    <glyph glyph-name="uni1EEB" unicode="&#x1eeb;" horiz-adv-x="481" 
d="M440 568l41 8q15 -25 15 -58q0 -32 -20.5 -52t-56.5 -20h-12v-328q0 -48 4 -118h-42l-4 75h-2q-18 -34 -55.5 -59.5t-89.5 -25.5q-60 0 -103.5 46t-43.5 155v289h46v-279q0 -171 112 -171q46 0 79 28.5t46 65.5q7 26 7 50v306h51q42 0 42 38q0 26 -14 50zM125 685h66
l87 -136h-35z" />
    <glyph glyph-name="uni1EEC" unicode="&#x1eec;" horiz-adv-x="584" 
d="M525 760l42 8q13 -28 13 -59q0 -32 -19 -51t-56 -19h-13v-383q0 -139 -60 -202.5t-154 -63.5q-89 0 -145.5 60.5t-56.5 195.5v428h46v-423q0 -114 43.5 -167.5t114.5 -53.5q77 0 121.5 54.5t44.5 166.5v423h51q22 0 31.5 8.5t9.5 27.5q0 26 -13 50zM307 710l-30 9
q7 18 29 41t22 40q0 32 -34 32q-27 0 -50 -35l-23 15q27 56 82 56q30 0 50 -17.5t20 -44.5q0 -19 -10 -33t-28 -31t-28 -32z" />
    <glyph glyph-name="uni1EED" unicode="&#x1eed;" horiz-adv-x="481" 
d="M440 568l41 8q15 -25 15 -58q0 -32 -20.5 -52t-56.5 -20h-12v-328q0 -48 4 -118h-42l-4 75h-2q-18 -34 -55.5 -59.5t-89.5 -25.5q-60 0 -103.5 46t-43.5 155v289h46v-279q0 -171 112 -171q46 0 79 28.5t46 65.5q7 26 7 50v306h51q42 0 42 38q0 26 -14 50zM256 532l-30 9
q5 19 30 45.5t25 45.5q0 16 -10 25.5t-26 9.5q-26 0 -48 -35l-23 14q25 58 79 58q31 0 51.5 -18.5t20.5 -47.5q0 -28 -31 -60t-38 -46z" />
    <glyph glyph-name="uni1EEE" unicode="&#x1eee;" horiz-adv-x="584" 
d="M525 760l42 8q13 -28 13 -59q0 -32 -19 -51t-56 -19h-13v-383q0 -139 -60 -202.5t-154 -63.5q-89 0 -145.5 60.5t-56.5 195.5v428h46v-423q0 -114 43.5 -167.5t114.5 -53.5q77 0 121.5 54.5t44.5 166.5v423h51q22 0 31.5 8.5t9.5 27.5q0 26 -13 50zM214 716h-32
q-1 36 15.5 60.5t44.5 24.5q17 0 53 -20q34 -17 47 -17t20 7.5t8 29.5h32q0 -79 -60 -79q-22 0 -55 19q-34 19 -46 19q-22 0 -27 -44z" />
    <glyph glyph-name="uni1EEF" unicode="&#x1eef;" horiz-adv-x="481" 
d="M440 568l41 8q15 -25 15 -58q0 -32 -20.5 -52t-56.5 -20h-12v-328q0 -48 4 -118h-42l-4 75h-2q-18 -34 -55.5 -59.5t-89.5 -25.5q-60 0 -103.5 46t-43.5 155v289h46v-279q0 -171 112 -171q46 0 79 28.5t46 65.5q7 26 7 50v306h51q42 0 42 38q0 26 -14 50zM166 570h-33
q-1 38 15 61.5t44 23.5q16 0 55 -21q30 -17 42 -17q25 0 28 40h32q0 -81 -60 -81q-19 0 -53 19q-31 18 -43 18q-22 0 -27 -43z" />
    <glyph glyph-name="uni1EF0" unicode="&#x1ef0;" horiz-adv-x="584" 
d="M525 760l42 8q13 -28 13 -59q0 -32 -19 -51t-56 -19h-13v-383q0 -139 -60 -202.5t-154 -63.5q-89 0 -145.5 60.5t-56.5 195.5v428h46v-423q0 -114 43.5 -167.5t114.5 -53.5q77 0 121.5 54.5t44.5 166.5v423h51q22 0 31.5 8.5t9.5 27.5q0 26 -13 50zM290 -80
q15 0 25.5 -11t10.5 -27q0 -15 -10.5 -26t-26.5 -11t-26.5 11t-10.5 26t11 26.5t27 11.5z" />
    <glyph glyph-name="uni1EF1" unicode="&#x1ef1;" horiz-adv-x="481" 
d="M440 568l41 8q15 -25 15 -58q0 -32 -20.5 -52t-56.5 -20h-12v-328q0 -48 4 -118h-42l-4 75h-2q-18 -34 -55.5 -59.5t-89.5 -25.5q-60 0 -103.5 46t-43.5 155v289h46v-279q0 -171 112 -171q46 0 79 28.5t46 65.5q7 26 7 50v306h51q42 0 42 38q0 26 -14 50zM236 -80
q15 0 25.5 -11t10.5 -27q0 -15 -10.5 -26t-26.5 -11t-26.5 11t-10.5 26t11 26.5t27 11.5z" />
    <glyph glyph-name="Ygrave" unicode="&#x1ef2;" horiz-adv-x="469" 
d="M259 0h-46v295l-195 379h51l98 -193q53 -105 71 -149h2q12 30 73 151l101 191h51l-206 -379v-295zM108 810h71l99 -110h-41z" />
    <glyph glyph-name="ygrave" unicode="&#x1ef3;" horiz-adv-x="403" 
d="M89 685h66l87 -136h-35zM13 480h49l110 -307q17 -50 32 -106h2l33 108l103 305h49l-121 -331q-45 -129 -76.5 -198.5t-74.5 -112.5q-41 -40 -80 -56l-18 39q46 21 80 59q45 51 70 113q6 18 6 23t-5 20z" />
    <glyph glyph-name="uni1EF4" unicode="&#x1ef4;" horiz-adv-x="469" 
d="M259 0h-46v295l-195 379h51l98 -193q53 -105 71 -149h2q12 30 73 151l101 191h51l-206 -379v-295zM235 -154h-1q-15 0 -25.5 11t-10.5 26t11 26t26 11t25.5 -11t10.5 -26t-10.5 -26t-25.5 -11z" />
    <glyph glyph-name="uni1EF5" unicode="&#x1ef5;" horiz-adv-x="403" 
d="M13 480h49l110 -307q17 -50 32 -106h2l33 108l103 305h49l-121 -331q-45 -129 -76.5 -198.5t-74.5 -112.5q-41 -40 -80 -56l-18 39q46 21 80 59q45 51 70 113q6 18 6 23t-5 20zM256 -80q15 0 25.5 -11t10.5 -27q0 -15 -10.5 -26t-26.5 -11t-26.5 11t-10.5 26t11 26.5
t27 11.5z" />
    <glyph glyph-name="uni1EF6" unicode="&#x1ef6;" horiz-adv-x="469" 
d="M259 0h-46v295l-195 379h51l98 -193q53 -105 71 -149h2q12 30 73 151l101 191h51l-206 -379v-295zM248 710l-30 9q7 18 29 41t22 40q0 32 -34 32q-27 0 -50 -35l-23 15q27 56 82 56q30 0 50 -17.5t20 -44.5q0 -19 -10 -33t-28 -31t-28 -32z" />
    <glyph glyph-name="uni1EF7" unicode="&#x1ef7;" horiz-adv-x="403" 
d="M13 480h49l110 -307q17 -50 32 -106h2l33 108l103 305h49l-121 -331q-45 -129 -76.5 -198.5t-74.5 -112.5q-41 -40 -80 -56l-18 39q46 21 80 59q45 51 70 113q6 18 6 23t-5 20zM214 532l-30 9q5 19 30 45.5t25 45.5q0 16 -10 25.5t-26 9.5q-26 0 -48 -35l-23 14
q25 58 79 58q31 0 51.5 -18.5t20.5 -47.5q0 -28 -31 -60t-38 -46z" />
    <glyph glyph-name="uni1EF8" unicode="&#x1ef8;" horiz-adv-x="469" 
d="M259 0h-46v295l-195 379h51l98 -193q53 -105 71 -149h2q12 30 73 151l101 191h51l-206 -379v-295zM157 716h-32q-1 36 15.5 60.5t44.5 24.5q17 0 53 -20q34 -17 47 -17t20 7.5t8 29.5h32q0 -79 -60 -79q-22 0 -55 19q-34 19 -46 19q-22 0 -27 -44z" />
    <glyph glyph-name="uni1EF9" unicode="&#x1ef9;" horiz-adv-x="403" 
d="M130 570h-33q-1 38 15 61.5t44 23.5q16 0 55 -21q30 -17 42 -17q25 0 28 40h32q0 -81 -60 -81q-19 0 -53 19q-31 18 -43 18q-22 0 -27 -43zM13 480h49l110 -307q17 -50 32 -106h2l33 108l103 305h49l-121 -331q-45 -129 -76.5 -198.5t-74.5 -112.5q-41 -40 -80 -56
l-18 39q46 21 80 59q45 51 70 113q6 18 6 23t-5 20z" />
    <glyph glyph-name="endash" unicode="&#x2013;" horiz-adv-x="500" 
d="M30 274h440v-37h-440v37z" />
    <glyph glyph-name="emdash" unicode="&#x2014;" horiz-adv-x="1000" 
d="M30 274h940v-37h-940v37z" />
    <glyph glyph-name="quoteleft" unicode="&#x2018;" horiz-adv-x="172" 
d="M95 477l-58 -10q13 53 38.5 123.5t38.5 93.5l33 5q-12 -32 -28.5 -99t-23.5 -113z" />
    <glyph glyph-name="quoteright" unicode="&#x2019;" horiz-adv-x="172" 
d="M89 680l58 10q-13 -53 -38.5 -123.5t-38.5 -93.5l-33 -5q12 32 28.5 99t23.5 113z" />
    <glyph glyph-name="quotesinglbase" unicode="&#x201a;" horiz-adv-x="172" 
d="M58 -121l-33 -5q12 32 28.5 99t23.5 113l58 10q-13 -53 -38.5 -123.5t-38.5 -93.5z" />
    <glyph glyph-name="quotedblleft" unicode="&#x201c;" horiz-adv-x="291" 
d="M95 477l-58 -10q13 53 38.5 123.5t38.5 93.5l33 5q-12 -32 -28.5 -99t-23.5 -113zM214 477l-58 -10q13 53 38.5 123.5t38.5 93.5l33 5q-12 -32 -28.5 -99t-23.5 -113z" />
    <glyph glyph-name="quotedblright" unicode="&#x201d;" horiz-adv-x="291" 
d="M89 680l58 10q-13 -53 -38.5 -123.5t-38.5 -93.5l-33 -5q12 32 28.5 99t23.5 113zM208 680l58 10q-13 -53 -38.5 -123.5t-38.5 -93.5l-33 -5q12 32 28.5 99t23.5 113z" />
    <glyph glyph-name="quotedblbase" unicode="&#x201e;" horiz-adv-x="291" 
d="M58 -121l-33 -5q12 32 28.5 99t23.5 113l58 10q-13 -53 -38.5 -123.5t-38.5 -93.5zM177 -121l-33 -5q12 32 28.5 99t23.5 113l58 10q-13 -53 -38.5 -123.5t-38.5 -93.5z" />
    <glyph glyph-name="dagger" unicode="&#x2020;" horiz-adv-x="446" 
d="M200 674h46l-5 -213l162 5v-44l-162 5l5 -477h-46l5 477l-162 -5v44l162 -5z" />
    <glyph glyph-name="daggerdbl" unicode="&#x2021;" horiz-adv-x="446" 
d="M200 674h46l-4 -208l161 5v-44l-161 6v-236l161 5v-43l-161 5l4 -214h-46l3 214l-160 -5v43l161 -5v236l-161 -6v44l161 -5z" />
    <glyph glyph-name="bullet" unicode="&#x2022;" horiz-adv-x="245" 
d="M122 170h-1q-36 0 -62 26t-26 63q-1 37 25.5 63t63.5 26t63.5 -26t26.5 -63t-26.5 -63t-63.5 -26z" />
    <glyph glyph-name="ellipsis" unicode="&#x2026;" horiz-adv-x="1000" 
d="M167 -10h-1q-16 0 -27 12.5t-11 30.5q0 20 11 32t29 12t28 -12t10 -32q0 -19 -10.5 -31t-28.5 -12zM500 -10h-1q-16 0 -27 12.5t-11 30.5q0 20 11 32t29 12t28 -12t10 -32q0 -19 -10.5 -31t-28.5 -12zM833 -10h-1q-16 0 -27 12.5t-11 30.5q0 20 11 32t29 12t28 -12
t10 -32q0 -19 -10.5 -31t-28.5 -12z" />
    <glyph glyph-name="perthousand" unicode="&#x2030;" horiz-adv-x="1030" 
d="M168 660h1q57 0 93 -49.5t36 -144.5q0 -99 -38 -150.5t-96 -51.5q-54 0 -91.5 50t-38.5 145q0 98 39.5 149.5t94.5 51.5zM166 626h-1q-42 0 -65.5 -49t-23.5 -115q-2 -66 22 -115t68 -49q46 0 68 48t22 118q0 67 -21.5 114.5t-68.5 47.5zM184 -14h-39l375 677h39z
M543 389h1q57 0 93.5 -49.5t36.5 -144.5q0 -98 -38 -149.5t-96 -51.5q-55 0 -92.5 49.5t-38.5 145.5q0 97 39.5 148.5t94.5 51.5zM541 355h-1q-42 0 -65.5 -49t-23.5 -115q-1 -66 22.5 -114.5t67.5 -48.5q46 0 68 47.5t22 117.5q0 43 -7.5 77.5t-28.5 59.5t-54 25zM866 389
h1q57 0 93 -49.5t36 -144.5q0 -98 -37.5 -149.5t-95.5 -51.5q-55 0 -92.5 49.5t-38.5 145.5q0 97 39.5 148.5t94.5 51.5zM864 355h-1q-42 0 -65.5 -49t-23.5 -115q-1 -66 22.5 -114.5t67.5 -48.5q46 0 68 47.5t22 117.5q0 67 -21.5 114.5t-68.5 47.5z" />
    <glyph glyph-name="guilsinglleft" unicode="&#x2039;" horiz-adv-x="233" 
d="M208 428l-130 -176l130 -176h-48l-130 176l130 176h48z" />
    <glyph glyph-name="guilsinglright" unicode="&#x203a;" horiz-adv-x="233" 
d="M156 252l-131 176h48l130 -176l-130 -176h-47z" />
    <glyph glyph-name="fraction" unicode="&#x2044;" horiz-adv-x="115" 
d="M-109 -10h-39l371 670h39z" />
    <glyph glyph-name="zero.superior" unicode="&#x2070;" horiz-adv-x="292" 
d="M143 430h-1q-53 0 -86.5 51.5t-33.5 147.5q0 97 36 149t92 52t87.5 -50.5t31.5 -145.5q0 -100 -33 -152t-93 -52zM145 464h1q40 0 60 45t20 123q0 164 -80 164q-37 0 -59 -45t-22 -119q0 -77 21.5 -122.5t58.5 -45.5z" />
    <glyph glyph-name="four.superior" unicode="&#x2074;" horiz-adv-x="298" 
d="M228 435h-41v112h-175v25l173 253h43v-244h55v-34h-55v-112zM187 581v135q0 14 3 62l-2 1q-18 -34 -35 -62l-93 -134v-2h127z" />
    <glyph glyph-name="five.superior" unicode="&#x2075;" horiz-adv-x="267" 
d="M235 823v-37h-141l-16 -107q16 2 30 2q46 0 78 -21q54 -32 54 -99q0 -57 -38.5 -94.5t-96.5 -37.5q-52 0 -90 23l12 33q31 -21 78 -21q39 0 65.5 25t26.5 66q0 43 -27.5 67.5t-80.5 24.5q-3 0 -51 -4l25 180h172z" />
    <glyph glyph-name="six.superior" unicode="&#x2076;" horiz-adv-x="293" 
d="M236 830v-36q-24 0 -39 -3q-57 -11 -91 -52.5t-40 -96.5h1q33 48 92 48q50 0 81 -34.5t31 -90.5q0 -55 -33 -95t-88 -40q-57 0 -92.5 44.5t-35.5 118.5q0 110 62 175q43 48 115 59q21 3 37 3zM151 464h1q33 0 54.5 27t21.5 71q0 45 -22.5 69.5t-58.5 24.5q-53 0 -77 -50
q-6 -12 -6 -22q0 -55 23 -87.5t64 -32.5z" />
    <glyph glyph-name="seven.superior" unicode="&#x2077;" horiz-adv-x="252" 
d="M14 823h230v-28l-165 -360h-43l163 351v1h-185v36z" />
    <glyph glyph-name="eight.superior" unicode="&#x2078;" horiz-adv-x="289" 
d="M149 830h1q48 0 76 -27.5t28 -65.5q0 -61 -64 -92v-2q77 -34 77 -102q0 -49 -35.5 -80t-87.5 -31q-55 0 -88.5 30t-33.5 73q0 72 77 107v2q-62 29 -62 87q0 44 32 72.5t80 28.5zM144 462h1q36 0 57.5 20.5t21.5 53.5q0 35 -21.5 55.5t-64.5 34.5q-34 -11 -53.5 -34
t-19.5 -52q0 -33 21.5 -55.5t57.5 -22.5zM147 799h-1q-31 0 -49.5 -19t-18.5 -47q0 -55 74 -76q60 23 60 76q0 28 -16 47t-49 19z" />
    <glyph glyph-name="nine.superior" unicode="&#x2079;" horiz-adv-x="289" 
d="M53 430v36q15 0 41 3q43 6 78 39q40 40 51 112h-2q-33 -44 -90 -44q-50 0 -79.5 34t-29.5 84q0 56 35 96t90 40t87 -44t32 -118q0 -114 -64 -182q-41 -42 -102 -52q-24 -4 -47 -4zM142 797h-1q-33 0 -55 -28t-22 -73q0 -39 21.5 -62.5t55.5 -23.5q52 0 78 43q4 7 4 19
q0 58 -20.5 91.5t-60.5 33.5z" />
    <glyph glyph-name="parenleft.superior" unicode="&#x207d;" horiz-adv-x="163" 
d="M117 861h35q-76 -102 -76 -245q0 -138 76 -242h-35q-78 101 -78 242q0 142 78 245z" />
    <glyph glyph-name="parenright.superior" unicode="&#x207e;" horiz-adv-x="163" 
d="M45 374h-34q76 104 76 244q0 137 -76 243h34q79 -102 79 -243q0 -140 -79 -244z" />
    <glyph glyph-name="zero.inferior" unicode="&#x2080;" horiz-adv-x="292" 
d="M143 -152h-1q-53 0 -86.5 51.5t-33.5 147.5q0 97 36 149t92 52t87.5 -50.5t31.5 -145.5q0 -100 -33 -152t-93 -52zM145 -118h1q40 0 60 45t20 123q0 164 -80 164q-37 0 -59 -45t-22 -119q0 -77 21.5 -122.5t58.5 -45.5z" />
    <glyph glyph-name="one.inferior" unicode="&#x2081;" horiz-adv-x="206" 
d="M140 -147h-40v350h-2l-70 -37l-8 33l85 44h35v-390z" />
    <glyph glyph-name="two.inferior" unicode="&#x2082;" horiz-adv-x="268" 
d="M7 -147v22l56 56q64 64 96.5 111.5t32.5 90.5q0 36 -20.5 58t-60.5 22q-39 0 -78 -32l-15 27q40 40 103 40q57 0 85.5 -32.5t28.5 -74.5q0 -52 -34 -102t-98 -111l-36 -37v-2h175v-36h-235z" />
    <glyph glyph-name="three.inferior" unicode="&#x2083;" horiz-adv-x="261" 
d="M39 187l-14 31q41 30 95 30q51 0 77 -26t26 -64q0 -29 -18.5 -53.5t-51.5 -37.5v-2q37 -6 61.5 -33.5t24.5 -66.5q0 -48 -36.5 -82.5t-101.5 -34.5q-59 0 -96 26l14 33q36 -25 85 -25q46 0 69.5 24t22.5 57q0 42 -31.5 63t-80.5 21h-19v32h21q33 0 64 20t31 57
q0 24 -17 41t-49 17q-42 0 -76 -27z" />
    <glyph glyph-name="four.inferior" unicode="&#x2084;" horiz-adv-x="298" 
d="M228 -147h-41v112h-175v25l173 253h43v-244h55v-34h-55v-112zM187 -1v135q0 14 3 62l-2 1q-18 -34 -35 -62l-93 -134v-2h127z" />
    <glyph glyph-name="five.inferior" unicode="&#x2085;" horiz-adv-x="267" 
d="M235 241v-37h-141l-16 -107q16 2 30 2q46 0 78 -21q54 -32 54 -99q0 -57 -38.5 -94.5t-96.5 -37.5q-52 0 -90 23l12 33q31 -21 78 -21q39 0 65.5 25t26.5 66q0 43 -27.5 67.5t-80.5 24.5q-3 0 -51 -4l25 180h172z" />
    <glyph glyph-name="six.inferior" unicode="&#x2086;" horiz-adv-x="293" 
d="M236 248v-36q-24 0 -39 -3q-57 -11 -91 -52.5t-40 -96.5h1q33 48 92 48q50 0 81 -34.5t31 -90.5q0 -55 -33 -95t-88 -40q-57 0 -92.5 44.5t-35.5 118.5q0 110 62 175q43 48 115 59q21 3 37 3zM151 -118h1q33 0 54.5 27t21.5 71q0 45 -22.5 69.5t-58.5 24.5q-53 0 -77 -50
q-6 -12 -6 -22q0 -55 23 -87.5t64 -32.5z" />
    <glyph glyph-name="seven.inferior" unicode="&#x2087;" horiz-adv-x="252" 
d="M14 241h230v-28l-165 -360h-43l163 351v1h-185v36z" />
    <glyph glyph-name="eight.inferior" unicode="&#x2088;" horiz-adv-x="289" 
d="M149 248h1q48 0 76 -27.5t28 -65.5q0 -61 -64 -92v-2q77 -34 77 -102q0 -49 -35.5 -80t-87.5 -31q-55 0 -88.5 30t-33.5 73q0 72 77 107v2q-62 29 -62 87q0 44 32 72.5t80 28.5zM144 -120h1q36 0 57.5 20.5t21.5 53.5q0 35 -21.5 55.5t-64.5 34.5q-34 -11 -53.5 -34
t-19.5 -52q0 -33 21.5 -55.5t57.5 -22.5zM147 217h-1q-31 0 -49.5 -19t-18.5 -47q0 -55 74 -76q60 23 60 76q0 28 -16 47t-49 19z" />
    <glyph glyph-name="nine.inferior" unicode="&#x2089;" horiz-adv-x="289" 
d="M53 -152v36q15 0 41 3q43 6 78 39q40 40 51 112h-2q-33 -44 -90 -44q-50 0 -79.5 34t-29.5 84q0 56 35 96t90 40t87 -44t32 -118q0 -114 -64 -182q-41 -42 -102 -52q-24 -4 -47 -4zM142 215h-1q-33 0 -55 -28t-22 -73q0 -39 21.5 -62.5t55.5 -23.5q52 0 78 43q4 7 4 19
q0 58 -20.5 91.5t-60.5 33.5z" />
    <glyph glyph-name="parenleft.inferior" unicode="&#x208d;" horiz-adv-x="163" 
d="M117 279h35q-76 -102 -76 -245q0 -138 76 -242h-35q-78 101 -78 242q0 142 78 245z" />
    <glyph glyph-name="parenright.inferior" unicode="&#x208e;" horiz-adv-x="163" 
d="M45 -208h-34q76 104 76 244q0 137 -76 243h34q79 -102 79 -243q0 -140 -79 -244z" />
    <glyph glyph-name="dong" unicode="&#x20ab;" horiz-adv-x="449" 
d="M86 98h281v-40h-281v40zM320 655h43v-74h55v-33h-55v-309q0 -15 3 -75h-39l-2 56h-3q-32 -63 -114 -63q-61 0 -101.5 46t-40.5 124q0 83 43.5 131.5t107.5 48.5q69 0 101 -54h2v95h-121v33h121v74zM320 301v61q0 16 -3 28q-7 33 -34 56t-63 23q-50 0 -78 -39.5
t-28 -100.5q0 -57 26 -96t75 -39q34 0 62.5 20.5t39.5 59.5q3 12 3 27z" />
    <glyph glyph-name="Euro" unicode="&#x20ac;" horiz-adv-x="449" 
d="M427 63l13 -33q-54 -40 -131 -40q-99 0 -163 69q-64 72 -77 202h-56v36h54v14q0 36 2 52h-56v36h61q16 126 88 197q66 64 157 64q65 0 111 -31l-15 -36q-39 28 -99 28q-71 0 -122 -49q-57 -56 -74 -173h262v-36h-266q-2 -14 -2 -46v-20h268v-36h-266q11 -113 62 -170
q54 -61 136 -61q57 0 113 33z" />
    <glyph glyph-name="afii61289" unicode="&#x2113;" horiz-adv-x="439" 
d="M149 523v-249q143 149 143 301q0 100 -67 100q-32 0 -54 -38.5t-22 -113.5zM385 113l27 -23q-57 -99 -164 -99q-72 0 -107 49.5t-37 133.5v11q-20 -17 -54 -40l-17 28q56 44 71 58v277q0 108 35.5 157t93.5 49q46 0 75 -37t29 -100q0 -177 -188 -355v-20q1 -94 29 -132
t79 -38q74 0 128 81z" />
    <glyph glyph-name="afii61352" unicode="&#x2116;" horiz-adv-x="821" 
d="M654 648h1q62 0 97.5 -44.5t35.5 -124.5q0 -85 -40 -128.5t-96 -43.5q-60 0 -98.5 44.5t-38.5 124.5q0 81 40.5 126.5t98.5 45.5zM652 615h-1q-45 0 -68.5 -41.5t-23.5 -96.5q0 -56 26.5 -96.5t66.5 -40.5q44 0 68.5 40t24.5 98q0 54 -22.5 95.5t-70.5 41.5zM766 225
h-229v37h229v-37zM118 0h-44v661h50l188 -368q71 -141 106 -229l2 1q-8 121 -8 284v312h44v-661h-47l-190 373q-75 149 -104 226l-3 -1q6 -108 6 -288v-310z" />
    <glyph glyph-name="trademark" unicode="&#x2122;" horiz-adv-x="567" 
d="M30 674h206v-31h-86v-241h-34v241h-86v31zM550 402h-37l-12 185q-1 21 -3 58h-2q-3 -9 -10 -32.5t-10 -32.5l-58 -174h-40l-59 179q-11 37 -19 60h-1q0 -16 -2 -58l-12 -185h-35l21 272h51l59 -172q6 -16 17 -57h2q2 6 8 26.5t9 28.5l58 174h52z" />
    <glyph glyph-name="Omega" unicode="&#x2126;" horiz-adv-x="607" 
d="M437 44v-3h139v-41h-204v34q64 48 104.5 136t40.5 185q0 49 -13 98.5t-37.5 93t-66.5 71t-95 27.5q-69 0 -120 -45.5t-73 -109.5t-22 -134q0 -93 42 -185t103 -137v-34h-204v41h138v3q-55 53 -91 135t-36 178q0 150 76 238.5t191 88.5q113 0 184.5 -88t71.5 -234
q0 -101 -36 -183.5t-92 -134.5z" />
    <glyph glyph-name="estimated" unicode="&#x212e;" horiz-adv-x="817" 
d="M782 316h-605q-5 0 -5 -4v-183q0 -10 9 -21q93 -99 229 -99q145 0 240 111h55q-52 -61 -130 -96t-166 -35q-155 0 -264.5 98.5t-109.5 237.5t109.5 237.5t264.5 98.5t264 -98.5t109 -237.5v-9zM646 340v184q0 12 -10 22q-95 95 -226 95q-133 0 -228 -98q-10 -10 -10 -23
v-180q0 -5 5 -5h464q5 0 5 5z" />
    <glyph glyph-name="partialdiff" unicode="&#x2202;" horiz-adv-x="375" 
d="M78 644l-18 31q65 48 145 48q92 0 158 -89t66 -258q0 -187 -68.5 -286.5t-162.5 -99.5q-79 0 -123 55t-44 147q0 101 60.5 171.5t141.5 70.5q53 0 93 -25t58 -60h1q1 12 1 38q0 144 -55 220t-126 76q-74 0 -127 -39zM201 30h1q69 0 118 76t60 186q-18 45 -57 73.5
t-88 28.5q-64 0 -110.5 -57t-46.5 -141q0 -81 34 -123.5t89 -42.5z" />
    <glyph glyph-name="Delta" unicode="&#x2206;" horiz-adv-x="488" 
d="M471 0h-454v32l205 626h44l205 -626v-32zM423 40l-132 408q-39 123 -47 156h-3q-13 -54 -42 -145l-135 -419h359z" />
    <glyph glyph-name="product" unicode="&#x220f;" horiz-adv-x="536" 
d="M527 610h-82v-700h-46v700h-262v-700h-46v700h-82v40h518v-40z" />
    <glyph glyph-name="summation" unicode="&#x2211;" horiz-adv-x="448" 
d="M459 -90h-453v32l251 336l-237 339v33h406v-39h-346v-4l230 -327l-244 -326v-4h393v-40z" />
    <glyph glyph-name="minus" unicode="&#x2212;" horiz-adv-x="596" 
d="M40 287h516v-40h-516v40z" />
    <glyph glyph-name="uni2215" unicode="&#x2215;" horiz-adv-x="115" 
d="M-109 -10h-39l371 670h39z" />
    <glyph glyph-name="uni2219" unicode="&#x2219;" horiz-adv-x="173" 
d="M86 219h-1q-16 0 -27 12t-11 30q0 19 11.5 31t28.5 12t27.5 -12t10.5 -31q0 -18 -10.5 -30t-28.5 -12z" />
    <glyph glyph-name="radical" unicode="&#x221a;" horiz-adv-x="539" 
d="M545 819l-223 -923h-39l-152 437l-71 -29l-15 34l113 46l125 -370q10 -29 16 -58h1q3 18 11 56l191 807h43z" />
    <glyph glyph-name="infinity" unicode="&#x221e;" horiz-adv-x="713" 
d="M533 128h-1q-15 0 -29.5 3t-29.5 11l-25 13.5t-25.5 19.5l-22 19.5t-23 22.5t-20.5 20l-40.5 -40t-38.5 -31.5t-52 -29t-53 -8.5q-58 0 -95.5 38t-37.5 98q0 56 41 96t100 40q14 0 27.5 -3t24.5 -7t24.5 -12.5t21 -14t21.5 -18l19.5 -17.5t20 -20l17.5 -18q36 37 54.5 54
t55.5 36.5t74 19.5q58 0 95.5 -38t37.5 -98q0 -56 -41 -96t-100 -40zM535 168h1q41 0 68.5 28.5t27.5 67.5q0 41 -26.5 68.5t-67.5 27.5q-30 0 -61.5 -18t-48 -33t-44.5 -45q7 -6 25 -24.5t28.5 -27.5t27.5 -21t34 -17.5t36 -5.5zM176 168h1q29 0 60 17t48.5 33.5t44.5 45.5
q-7 6 -25 24.5t-28.5 27.5t-27.5 21t-34 17.5t-36 5.5q-41 0 -69 -28.5t-28 -67.5q0 -41 26.5 -68.5t67.5 -27.5z" />
    <glyph glyph-name="integral" unicode="&#x222b;" horiz-adv-x="290" 
d="M276 780l-10 -35q-16 4 -26 4q-28 0 -44 -19q-33 -37 -33 -163q0 -71 4.5 -244t4.5 -242q0 -139 -47 -190q-29 -32 -72 -32q-26 0 -40 8l9 35q20 -5 31 -5q27 0 44 20q34 43 34 166q0 70 -4.5 244t-4.5 243q0 138 46 185q29 32 73 32q21 0 35 -7z" />
    <glyph glyph-name="approxequal" unicode="&#x2248;" horiz-adv-x="596" 
d="M541 405l25 -30q-25 -26 -65.5 -46t-80.5 -20q-21 0 -42.5 4.5t-32.5 8.5t-31 12.5l-25 10.5q-6 2 -23 10t-28 12t-29.5 8t-36.5 4q-31 0 -64.5 -16.5t-56.5 -39.5l-25 30q25 26 65.5 46t80.5 20q21 0 42.5 -4.5t32.5 -8.5t31 -12.5l25 -10.5q6 -2 23 -10t28 -12t29.5 -8
t36.5 -4q31 0 64.5 16.5t56.5 39.5zM547 215l25 -30q-25 -26 -65.5 -46t-80.5 -20q-21 0 -42.5 4.5t-32.5 8.5t-31 12.5l-25 10.5q-6 2 -23 10t-28 12t-29.5 8t-36.5 4q-31 0 -64.5 -16.5t-56.5 -39.5l-25 30q25 26 65.5 46t80.5 20q21 0 42.5 -4.5t32.5 -8.5t31 -12.5
l25 -10.5q6 -2 23 -10t28 -12t29.5 -8t36.5 -4q31 0 64.5 16.5t56.5 39.5z" />
    <glyph glyph-name="notequal" unicode="&#x2260;" horiz-adv-x="596" 
d="M556 155h-310l-85 -134h-44l86 134h-163v40h188l97 150h-285v40h310l85 134h44l-86 -134h163v-40h-188l-97 -150h285v-40z" />
    <glyph glyph-name="lessequal" unicode="&#x2264;" horiz-adv-x="596" 
d="M525 88l-454 203v38l454 203v-45l-402 -176v-2l402 -176v-45zM525 0h-452v39h452v-39z" />
    <glyph glyph-name="greaterequal" unicode="&#x2265;" horiz-adv-x="596" 
d="M525 291l-454 -203v45l402 176v2l-402 176v45l454 -203v-38zM523 0h-452v39h452v-39z" />
    <glyph glyph-name="lozenge" unicode="&#x25ca;" horiz-adv-x="480" 
d="M429 325l-168 -346h-42l-168 346l168 346h42zM383 324l-135 284q-5 9 -8 20h-2q-3 -11 -8 -20l-133 -282l135 -284q5 -9 8 -20h2q4 13 8 20z" />
    <glyph glyph-name="G_tildecomb" unicode="&#xe000;" horiz-adv-x="561" 
d="M506 334v-308q-78 -33 -170 -33q-130 0 -211 82q-88 88 -88 257q0 159 86.5 254t229.5 95q81 0 137 -27l-15 -39q-54 25 -124 25q-120 0 -193 -79t-73 -223q0 -149 69.5 -226.5t188.5 -77.5q80 0 116 19v243h-140v38h187zM247 716h-32q-1 36 15.5 60.5t44.5 24.5
q17 0 53 -20q34 -17 47 -17t20 7.5t8 29.5h32q0 -79 -60 -79q-22 0 -55 19q-34 19 -46 19q-22 0 -27 -44z" />
    <glyph glyph-name="M_uni0302" unicode="&#xe001;" horiz-adv-x="717" 
d="M613 0l-18 321q-14 232 -12 296h-4q-31 -110 -81 -252l-128 -365h-30l-121 354q-58 170 -80 263h-3q-1 -121 -13 -305l-18 -312h-46l45 674h53l130 -376q53 -161 69 -222h3q15 62 69 221l132 377h57l42 -674h-46zM337 813h40l101 -103h-52l-68 69h-2l-68 -69h-50z" />
    <glyph glyph-name="N_uni0302" unicode="&#xe002;" horiz-adv-x="577" 
d="M120 0h-44v674h44l225 -383q78 -139 117 -226l2 1q-8 117 -8 284v324h45v-674h-44l-223 384q-86 151 -118 226l-2 -1q6 -89 6 -285v-324zM267 813h40l101 -103h-52l-68 69h-2l-68 -69h-50z" />
    <glyph glyph-name="g_tildecomb" unicode="&#xe005;" horiz-adv-x="491" 
d="M386 349v-280q0 -91 -14.5 -141t-44.5 -80q-54 -54 -146 -54q-87 0 -136 36l16 37q53 -34 126 -34q152 0 152 186v65h-2q-18 -37 -55.5 -60.5t-89.5 -23.5q-80 0 -132.5 66.5t-52.5 170.5q0 122 59 187.5t136 65.5q99 0 140 -84h2l2 74h44q-4 -66 -4 -131zM339 192v111
q0 27 -5 43q-13 44 -46.5 74.5t-83.5 30.5q-68 0 -109 -57.5t-41 -151.5q0 -91 39.5 -147t109.5 -56q43 0 78 26t51 77q7 24 7 50zM170 570h-33q-1 38 15 61.5t44 23.5q16 0 55 -21q30 -17 42 -17q25 0 28 40h32q0 -81 -60 -81q-19 0 -53 19q-31 18 -43 18q-22 0 -27 -43z
" />
    </font>
</defs>
</svg>
